Page 3 of 3 FirstFirst 123
Results 21 to 30 of 30

Thread: FÚTBOL - UEFA Champions League 1/8 Vuelta: FC Barcelona vs Arsenal 08/03/2011

Share |
  1. #21
    Senior Member Amateur
    Join Date
    Jun 2006
    Posts
    558
    Thanks
    48
    Thanked 1,033 Times in 378 Posts








     










    Fecha: 08-03-2011
    Idioma: Español
    Ripper: Brown8
    Uploader: Brown8
    Fuente: TVE-HD
    Formato: MKV
    Tamaño: 1,35 GB
    Resolución: 720 x 400 pixels (16:9)
    Video: AVC, 1700 Kbps, 25.00fps
    Audio: AAC, 96 kbps, 48.0 khz, 3 canales




    PRIMERA PARTE:
    http://www.fileserve.com/file/cx4AbM7

    SEGUNDA PARTE:
    http://www.fileserve.com/file/WWzv7gA



    PRIMERA PARTE:
    http://www.filesonic.com/file/188409672

    SEGUNDA PARTE:
    http://www.filesonic.com/file/188409782



    PRIMERA PARTE:
    http://bitshare.com/?f=ol1z9cw7

    SEGUNDA PARTE:
    http://bitshare.com/?f=663v2c57

  2. The Following 4 Users Say Thank You to brown For This Useful Post:

    DeViLoT (11th March 2011), luchito_bc (10th March 2011), tristin (10th March 2011), world11 (11th March 2011)

  3. #22
    Senior Member Profesional hollano's Avatar
    Join Date
    Feb 2009
    Location
    Revolutionw.Org
    Posts
    4,880
    Thanks
    436
    Thanked 2,038 Times in 649 Posts
    Barcelona vs Arsenal
    08-March-2011





    Source: Fox Sports + | Language: Español | Size: 750Mb
    Video: AVC at 850kbps | 29.970fps | 608x464 | Main@L3.0
    Audio: MP3 at 96kbps | CBR 2.0Ch. Stereo | 32000Hz
    Container: .AVI

    RELATOS: Luis Omar Tapias y Eduardo Biscayart


    FIRST HALF: Single Link +Mirrors
    Code:
    http://bitshare.com/files/tyrtp45o/UCL.2011.03.08.Barcelona.vs.Arsenal.1T.TVRip.x264-WRevT.avi.html
    
    
    http://www.fileserve.com/file/53up7W4
    SECOND HALF: Single Link +Mirrors
    Code:
    http://bitshare.com/files/wz3ywgjv/UCL.2011.03.08.Barcelona.vs.Arsenal.2T.TVRip.x264-WRevT.avi.html
    
    
    http://www.fileserve.com/file/47v2Pb9
    EXTRA TIEMPO + PENALES (si los hay): Single Link +Mirrors
     
    Code:
    NO HAY
    
    NO HAY NO HAY
    
    NO HAY NO HAY NO HAY
    "Nadie podrá llevar encima de su corazón a nadie, ni hacerle mal en su persona aunque piense y diga diferente"

    "Ser hincha de la seleccion colombia es como tener una novia prostituta , uno se divierte , la pasa una c.h.i.m.b.@ , pero no se puede ilusionar"

  4. The Following User Says Thank You to hollano For This Useful Post:

    ruben2600 (12th March 2011)

  5. #23
    Senior Member Profesional jein21's Avatar
    Join Date
    Mar 2008
    Posts
    3,387
    Thanks
    133
    Thanked 62 Times in 55 Posts

  6. The Following User Says Thank You to jein21 For This Useful Post:

    GHorry (17th March 2013)

  7. #24
    Senior Member Amateur Alvin_adam's Avatar
    Join Date
    Jul 2012
    Location
    Indonesia
    Posts
    111
    Thanks
    2
    Thanked 47 Times in 35 Posts
    UEFA Champions League 2010/2011 [Knockout Phase - Second Leg]
    FC BARCELONA v. ARSENAL FC
    March, 08th 2011
    Coverage from Sky Sports HD

    ------------------------------------------------------------------------------

    Source : DVB-S / Format : AVI / Language : English
    Video : XVID 352p (16:9) 25 fps / Audio : MP3 2 channels (stereo) 48 KHz 128 kbps
    Container : .avi / Ripper : 433

    ------------------------------------------------------------------------------

    SCREENSHOTS







    ------------------------------------------------------------------------------

    SINGLE LINK (MEGASHARES)
    http://adf.ly/CskKk

    ENJOY!
    Last edited by Alvin_adam; 10th November 2012 at 11:49.
    POSTING ALL MATCHES OF SPORTS (ESPECIALLY FOOTBALL) IN HD OR SD, ENJOY !!

    IF ANY PROBLEMS, PLEASE SENT A REPORT BY MESSAGE TO ME ..

    GREETINGS...

    Seleccion Espanola de Futbol, Carles Puyol, y Andres Iniesta

  8. The Following User Says Thank You to Alvin_adam For This Useful Post:

    mariobg29 (28th April 2014)

  9. #25
    Senior Member Profesional isolator's Avatar
    Join Date
    Apr 2007
    Location
    ASIA
    Posts
    2,321
    Thanks
    233
    Thanked 455 Times in 126 Posts
    Idioma: Español TVE1
    Fecha: 08-03-2011
    Peso: 7,50 Gb.
    Formato: AVC (.mkv)

    Capturas
     






    Media Info
     

    General
    Format : BDAV
    Format/Info : Blu-ray Video
    File size : 2.00 GiB
    Duration : 33mn 14s
    Overall bit rate mode : Variable
    Overall bit rate : 8 612 Kbps

    Video
    Format : AVC
    Format/Info : Advanced Video Codec
    Format profile : High@L4.0
    Format settings, CABAC : Yes
    Format settings, ReFrames : 5 frames
    Format settings, GOP : M=16, N=48
    Codec ID : 27
    Duration : 33mn 13s
    Bit rate : 8 004 Kbps
    Width : 1 280 pixels
    Height : 720 pixels
    Display aspect ratio : 16:9
    Frame rate : 50.000 fps
    Color space : YUV
    Chroma subsampling : 4:2:0
    Bit depth : 8 bits
    Scan type : Progressive
    Bits/(Pixel*Frame) : 0.174
    Stream size : 1.86 GiB (93%)
    Color primaries : BT.709
    Transfer characteristics : BT.709
    Matrix coefficients : BT.709

    Audio #1
    ID : 1100 (0x44C)
    Menu ID : 40001 (0x9C41)
    Format : E-AC-3
    Format/Info : Audio Coding 3
    Format settings, Endianness : Big
    Codec ID : 6
    Duration : 33mn 14s
    Bit rate mode : Constant
    Bit rate : 128 Kbps
    Channel(s) : 2 channels
    Channel positions : Front: L R
    Sampling rate : 48.0 KHz
    Compression mode : Lossy
    Delay relative to video : -1s 342ms
    Stream size : 30.4 MiB (1%)
    Language : Spanish


    Enlaces
    https://mega.co.nz/#!X4412R5B!IHAHDE...GANgKVbYEvH964
    https://mega.co.nz/#!esw1HZCY!Ib2K1l...mlzbc5L3Kt6EY4
    https://mega.co.nz/#!elp01YIQ!cBtTXS...5ryNkdfSi-UBQM
    https://mega.co.nz/#!G0hXWIYC!ICTRtj...esuvxgROxCePPU
    Last edited by isolator; 5th April 2013 at 15:11.

  10. The Following 8 Users Say Thank You to isolator For This Useful Post:

    AnBarna (5th April 2013), daviles05 (28th May 2013), Emalushky (4th April 2013), eragrip (10th January 2015), kasu13477 (25th April 2014), llusinho10 (12th December 2013), Meeessi (5th April 2013), sneyk (14th June 2020)

  11. #26
    Member Principiante Meeessi's Avatar
    Join Date
    Sep 2012
    Posts
    69
    Thanks
    746
    Thanked 163 Times in 32 Posts
    Inmessionante partido, muchas gracias isolator. Soy Argentino pero tuve la suerte de ir a ver este partido, lo tenia en ingles asi que te agradezco nuevamente.
    Gracias Totales

  12. #27
    Member Principiante
    Join Date
    Sep 2011
    Location
    Argentina
    Posts
    83
    Thanks
    361
    Thanked 54 Times in 19 Posts
    Impresionante trabajo, gracias por aportar isolator, abrazo!

    An

  13. #28

  14. #29
    Senior Member Profesional kasu13477's Avatar
    Join Date
    Feb 2014
    Posts
    3,278
    Thanks
    2,547
    Thanked 109 Times in 105 Posts
    Grandioso partido e impresionante calidad del archivo!! Muchas Gracias Crack!!

  15. #30
    Senior Member Profesional
    Join Date
    Nov 2013
    Location
    madrid
    Posts
    2,815
    Thanks
    2,161
    Thanked 123 Times in 119 Posts
    Gracias por el partido.

Posting Permissions

  • You may not post new threads
  • You may not post replies
  • You may not post attachments
  • You may not edit your posts
  •