Page 1 of 5 123 ... LastLast
Results 1 to 10 of 41

Thread: NBA Finals 2013, Game #3: Miami Heat vs. San Antonio Spurs 11-06-2013

Share |
  1. #1
    Senior Member Crack wigan88's Avatar
    Join Date
    May 2011
    Location
    Philadelphia, Pa., USA
    Posts
    9,548
    Thanks
    47
    Thanked 62,773 Times in 7,338 Posts

    NBA Finals 2013, Game #3: Miami Heat vs. San Antonio Spurs 11-06-2013

    SPANISH:

    NBA Finals 2013, Game #3: Miami Heat vs. San Antonio Spurs [1400 kbps], 6-11-2013, courtesy of CANAL+ Deportes. Links below:








    Commentary: Spanish
    File Format: FLV
    Resolution: 720 X 576
    Total Size: 1338 MB

    1st Quarter:

    http://adf.ly/QOU2T

    2nd Quarter:

    http://adf.ly/QOaHB

    3rd Quarter:

    http://adf.ly/QOeKg

    4th Quarter:

    http://adf.ly/QOhS9

    Overtime, if necessary:
     

    ---------------


    Enjoy Everyone!!!

    Wigan

    Quote Originally Posted by sppcctv View Post





    Mediainfo:
    Code:
    General
    Unique ID                                : 195621869335251469834090537129459072016 (0x932B66CECC1DA6CB91FA9120024C3C10)
    Complete name                            : N:\Torrents\NBaFnls G3 MIA - SAS Esp 1st 720p.mkv
    Format                                   : Matroska
    Format version                           : Version 4 / Version 2
    File size                                : 1 008 MiB
    Duration                                 : 1h 10mn
    Overall bit rate                         : 2 003 Kbps
    Encoded date                             : UTC 2013-06-12 03:49:21
    Writing application                      : mkvmerge v6.2.0 ('Promised Land') built on Apr 28 2013 12:22:01
    Writing library                          : libebml v1.3.0 + libmatroska v1.4.0
    
    Video
    ID                                       : 1
    Format                                   : AVC
    Format/Info                              : Advanced Video Codec
    Format profile                           : High@L3.2
    Format settings, CABAC                   : Yes
    Format settings, ReFrames                : 4 frames
    Codec ID                                 : V_MPEG4/ISO/AVC
    Duration                                 : 1h 10mn
    Bit rate                                 : 1 904 Kbps
    Width                                    : 1 280 pixels
    Height                                   : 720 pixels
    Display aspect ratio                     : 16:9
    Frame rate                               : 25.000 fps
    Color space                              : YUV
    Chroma subsampling                       : 4:2:0
    Bit depth                                : 8 bits
    Scan type                                : Progressive
    Bits/(Pixel*Frame)                       : 0.083
    Stream size                              : 940 MiB (93%)
    Title                                    : By SppccTeam
    Writing library                          : x264 core 115 r2013 6fce39a
    Encoding settings                        : cabac=1 / ref=3 / deblock=1:0:0 / analyse=0x3:0x13 / me=hex / subme=7 / psy=1 / psy_rd=1.00:0.00 / mixed_ref=1 / me_range=16 / chroma_me=1 / trellis=1 / 8x8dct=1 / cqm=0 / deadzone=21,11 / fast_pskip=1 / chroma_qp_offset=-2 / threads=12 / sliced_threads=0 / nr=0 / decimate=1 / interlaced=0 / bluray_compat=0 / constrained_intra=0 / bframes=3 / b_pyramid=2 / b_adapt=1 / b_bias=0 / direct=1 / weightb=1 / open_gop=0 / weightp=2 / keyint=250 / keyint_min=25 / scenecut=40 / intra_refresh=0 / rc_lookahead=40 / rc=cbr / mbtree=1 / bitrate=1904 / ratetol=1.0 / qcomp=0.60 / qpmin=10 / qpmax=51 / qpstep=4 / vbv_maxrate=1904 / vbv_bufsize=19040 / nal_hrd=none / ip_ratio=1.40 / aq=1:1.00
    Language                                 : Spanish
    Default                                  : Yes
    Forced                                   : No
    
    Audio
    ID                                       : 2
    Format                                   : MPEG Audio
    Format version                           : Version 1
    Format profile                           : Layer 3
    Mode                                     : Joint stereo
    Mode extension                           : MS Stereo
    Codec ID                                 : A_MPEG/L3
    Codec ID/Hint                            : MP3
    Duration                                 : 1h 10mn
    Bit rate mode                            : Constant
    Bit rate                                 : 96.0 Kbps
    Channel(s)                               : 2 channels
    Sampling rate                            : 44.1 KHz
    Compression mode                         : Lossy
    Delay relative to video                  : -4ms
    Stream size                              : 48.3 MiB (5%)
    Title                                    : Canal+ Deportes HD
    Language                                 : Spanish
    Default                                  : Yes
    Forced                                   : No
    Descarga:

    720p

    Primer Tiempo: (Q1 & Q2)
    Uploaded: http://ul.to/vx6t4y8r
    Depositfiles: http://dfiles.eu/files/z1gosdbh0


    Segundo Tiempo: (Q3 & Q4)
    Uploaded: http://ul.to/ump2tv7j
    Depositfiles: http://dfiles.eu/files/ewrgq7q2l


    Link Unico:
    Uploaded: http://ul.to/h5dkgbdk
    Depositfiles: http://dfiles.eu/files/daqwkod73

    Links de 1Gb:
    Uploaded:
    1. http://ul.to/h9jnww8r
    2. http://ul.to/sjps8pgh
    3. http://ul.to/mh6e2u10

    Depositfiles:
    1. http://dfiles.eu/files/rgi45nf24
    2. http://dfiles.eu/files/84h2l3y16
    3. http://dfiles.eu/files/daps2otoc

    TORRENT:
    Archivo.rar Con Imagenes de Muestra y el Torrent Del Partido (Solo Game 3)
    Uploaded: http://ul.to/s0nwci8q
    Depositfiles: http://dfiles.eu/files/9p1f10eqm


    400p

    Primer Tiempo: (Q1 & Q2)
    Uploaded: http://ul.to/qhlybmx3
    Depositfiles: http://dfiles.eu/files/0j7ji05pu


    Segundo Tiempo: (Q3 & Q4)
    Uploaded: http://ul.to/8ijinn1x
    Depositfiles: http://dfiles.eu/files/a93y3jd0j


    Link Unico:
    Uploaded: http://ul.to/n66n2g1k
    Depositfiles: http://dfiles.eu/files/3veladbtv

    Links de 1Gb:
    Uploaded:
    1. http://ul.to/eekwag7x
    2. http://ul.to/st6bb0cb

    Depositfiles:
    1. http://dfiles.eu/files/rfl693et1
    2. http://dfiles.eu/files/69iho8zvl

    TORRENT:
    Archivo.rar Con Imagenes de Muestra y el Torrent Del Partido (Solo Game 3)
    Uploaded: http://ul.to/1w9hio7b
    Depositfiles: http://dfiles.eu/files/2vb2841zg

    Quote Originally Posted by lizhengxiang View Post
    NBA Finals 2013, Game #3: Miami Heat vs. San Antonio Spurs 11-06-2013





    Format : mpeg
    File size : 2.0 GiB
    Source:CANAL+ HD
    Resolution:1280 X 720
    Language:Spanish

    Quote Originally Posted by sppcctv View Post





    Mediainfo:
    Code:
    General
    Unique ID                                : 229028325898658739999814607598240706673 (0xAC4D4047D5AEFD34959183C82D94B071)
    Complete name                            : N:\Torrents\NBaFnls G3 MIA - SAS Esp 400p.mkv
    Format                                   : Matroska
    Format version                           : Version 4 / Version 2
    File size                                : 1.36 GiB
    Duration                                 : 2h 23mn
    Overall bit rate                         : 1 358 Kbps
    Encoded date                             : UTC 2013-06-12 04:09:05
    Writing application                      : mkvmerge v6.2.0 ('Promised Land') built on Apr 28 2013 12:22:01
    Writing library                          : libebml v1.3.0 + libmatroska v1.4.0
    
    Video
    ID                                       : 1
    Format                                   : AVC
    Format/Info                              : Advanced Video Codec
    Format profile                           : Main@L3.0
    Format settings, CABAC                   : Yes
    Format settings, ReFrames                : 4 frames
    Codec ID                                 : V_MPEG4/ISO/AVC
    Duration                                 : 2h 23mn
    Nominal bit rate                         : 1 200 Kbps
    Width                                    : 720 pixels
    Height                                   : 400 pixels
    Display aspect ratio                     : 16:9
    Frame rate                               : 25.000 fps
    Color space                              : YUV
    Chroma subsampling                       : 4:2:0
    Bit depth                                : 8 bits
    Scan type                                : Progressive
    Bits/(Pixel*Frame)                       : 0.167
    Writing library                          : x264 core 120
    Encoding settings                        : cabac=1 / ref=1 / deblock=1:0:0 / analyse=0x1:0x111 / me=hex / subme=2 / psy=1 / psy_rd=1.00:0.00 / mixed_ref=0 / me_range=16 / chroma_me=1 / trellis=0 / 8x8dct=0 / cqm=0 / deadzone=21,11 / fast_pskip=1 / chroma_qp_offset=0 / threads=12 / sliced_threads=0 / nr=0 / decimate=1 / interlaced=0 / bluray_compat=0 / constrained_intra=0 / bframes=3 / b_pyramid=2 / b_adapt=1 / b_bias=0 / direct=1 / weightb=1 / open_gop=0 / weightp=1 / keyint=250 / keyint_min=25 / scenecut=40 / intra_refresh=0 / rc_lookahead=10 / rc=abr / mbtree=1 / bitrate=1200 / ratetol=1.0 / qcomp=0.60 / qpmin=3 / qpmax=69 / qpstep=4 / ip_ratio=1.40 / aq=1:1.00
    Language                                 : English
    Default                                  : Yes
    Forced                                   : No
    Color primaries                          : BT.709-5, BT.1361, IEC 61966-2-4, SMPTE RP177
    Transfer characteristics                 : BT.709-5, BT.1361
    Matrix coefficients                      : BT.709-5, BT.1361, IEC 61966-2-4 709, SMPTE RP177
    
    Audio
    ID                                       : 2
    Format                                   : AAC
    Format/Info                              : Advanced Audio Codec
    Format profile                           : LC
    Codec ID                                 : A_AAC
    Duration                                 : 2h 23mn
    Channel(s)                               : 2 channels
    Channel positions                        : Front: L R
    Sampling rate                            : 44.1 KHz
    Compression mode                         : Lossy
    Title                                    : Canal+ Deportes HD
    Language                                 : Spanish
    Default                                  : Yes
    Forced                                   : No
    Descarga Torrent:

    Archivo.rar Con Imagenes de Muestra y el Torrent de los 3 Partidos disputados (Si quereis descargar solo un Game, desmarcar los demas)

    Uploaded: http://zo.mu/pFQ
    Depositfiles: http://zo.mu/pk9

    Quote Originally Posted by NbaMagicMoments View Post
    San Antonio Spurs VS Miami Heat
    NBA Finals - Game 3





    Spanish / MKV / 820MB


    1st quarter: http://adf.ly/QSLEB
    2nd quarter: http://adf.ly/QSLIw
    3rd quarter: http://adf.ly/QSLL8
    4th quarter: http://adf.ly/QSLMu
    Over Time:
     
    Included in 4th quarter

    ENGLISH:

    NBA Finals 2013, Game #3: Miami Heat vs. San Antonio Spurs [1200 kbps], 6-11-2013, courtesy of ABC SPORTS. Links below:








    Commentary: English
    File Format: WMV
    Resolution: 936 X 504
    Total Size: 1178 MB

    1st Quarter:

    http://adf.ly/QOTUf

    2nd Quarter:

    http://adf.ly/QOZZH

    3rd Quarter:

    http://adf.ly/QOdi8

    4th Quarter:

    http://adf.ly/QOhIl

    Overtime, if necessary:
     

    ---------------


    Enjoy Everyone!!!

    Wigan





    Quote Originally Posted by kclayman View Post
    NBA 2013 Finals - Game 3
    Miami Heat vs San Antonio Spurs


    2013.06.11 - 21:00 ET






    Code:
    Language............: English
    Ripper..............: Reborn4HD
    Size................: 2.70 GB
    Format..............: mkv
    Resolution..........: 1280x720
    Video...............: H.264, 3000 Kbps @ 29.97 fps
    Audio...............: AAC, 128 Kbps, 44.1 KHz, 2 channels
    Release Note........: Unnecessary Footage Between Quarters Removed.




    Code:
    http://uploaded.net/file/hv8knf84/NBA.2013.Finals.G3.Heat.vs.Spurs.720p.ilprip.30fps.x264-Reborn4HD.mkv
    
    or
    
    http://rapidstation.com/pwxi1wfd9aya/NBA.2013.Finals.G3.Heat.vs.Spurs.720p.ilprip.30fps.x264-Reborn4HD.mkv.html



    Code:
    http://uploaded.net/file/k8u2xrpw/NBA.2013.Finals.G3.Heat.vs.Spurs.720p.ilprip.30fps.x264-Reborn4HD-1.mkv
    http://uploaded.net/file/bk6m4ss6/NBA.2013.Finals.G3.Heat.vs.Spurs.720p.ilprip.30fps.x264-Reborn4HD-2.mkv
    http://uploaded.net/file/8jvs88qr/NBA.2013.Finals.G3.Heat.vs.Spurs.720p.ilprip.30fps.x264-Reborn4HD-3.mkv
    http://uploaded.net/file/mda07twi/NBA.2013.Finals.G3.Heat.vs.Spurs.720p.ilprip.30fps.x264-Reborn4HD-4.mkv
    
    or
    
    http://rapidstation.com/imbkwcan39kh/NBA.2013.Finals.G3.Heat.vs.Spurs.720p.ilprip.30fps.x264-Reborn4HD-1.mkv.html
    http://rapidstation.com/z8stlips46ee/NBA.2013.Finals.G3.Heat.vs.Spurs.720p.ilprip.30fps.x264-Reborn4HD-2.mkv.html
    http://rapidstation.com/ectp1dvckgsb/NBA.2013.Finals.G3.Heat.vs.Spurs.720p.ilprip.30fps.x264-Reborn4HD-3.mkv.html
    http://rapidstation.com/775miqrv4ala/NBA.2013.Finals.G3.Heat.vs.Spurs.720p.ilprip.30fps.x264-Reborn4HD-4.mkv.html
    Extra time if any
     

    if there is any, it is included in 4th quarter.




    Enjoy and a simple thanks to me would be great!





    Quote Originally Posted by yosinocoupe View Post







    Ingles/English | MKV | 960x540 - Standar Definition | 1.67 Gb




    http://www49.zippyshare.com/v/32808203/file.html
    http://www.ziddu.com/download/223572...3.torrent.html

    Prorroga (si hubiese)
     
    Si hubiese, siempre estaria incluida en el unico link


    Ripper - Drax

    Nota: Este torrent contiene los Games 1, 2 y 3. Si solo queremos descargar el Game 3, desmarcar los Games 1 y 2.







    Quote Originally Posted by GreenGT View Post


    English
    Ripper - GreenGT
    Video: MPEG4 Video (H264) | 640x360 | 29.97 fps | 800kbps
    Audio: AAC | 44100Hz | stereo | 64kbps
    Size - 779 Mb



    Full Match in MP4 file:

    Code:
    http://ryushare.com/v01429vby667/11.06.2012.MIA@SAS.360p.mp4


    Full Match in MP4 file:

    Code:
    http://ul.to/jd9nm2cq




    Quote Originally Posted by GreenGT View Post


    English
    Ripper - GreenGT
    Video: MPEG4 Video (H264) | 960x540 | 29.97 fps | 1500kbps
    Audio: AAC | 44100Hz | stereo | 64kbps
    Size - 1.00 Gb



    Full Match in MP4 file:

    Code:
    http://ul.to/hc589gsu
    Full Match in RAR Archive

    Code:
    http://ul.to/mttzhy2a
    http://ul.to/cutq3ch6


    Full Match in RAR Archive

    Code:
    http://ryushare.com/qkykskk43qzs/11.06.2012.MIA@SAS.540p.part1.rar
    http://ryushare.com/eaflsbmzivpm/11.06.2012.MIA@SAS.540p.part2.rar



    Quote Originally Posted by yosinocoupe View Post








    Ingles/English | MKV | 1280x720 - 60 frames por segundo - Alta Definicion/High Definition | 3.74 Gb




    http://www2.zippyshare.com/v/15509692/file.html
    http://www.ziddu.com/download/223578...3.torrent.html

    Prorroga (si hubiese)
     
    Si hubiese, siempre estaria incluida en el unico link


    Ripper - m4rtyr

    Nota: Este torrent contiene los Games 1, 2 y 3. Si solo queremos descargar el Game 3, desmarcar los Games 1 y 2.







    Quote Originally Posted by yosinocoupe View Post








    Ingles/English | MKV | 1280x720 - Alta Definicion/High Definition | 1.91 Gb




    http://www38.zippyshare.com/v/18623283/file.html
    http://www.ziddu.com/download/223579...3.torrent.html

    Prorroga (si hubiese)
     
    Si hubiese, siempre estaria incluida en el unico link


    Ripper - chris11

    Nota: Este torrent contiene los Games 1, 2 y 3. Si solo queremos descargar el Game 3, desmarcar los Games 1 y 2.







    Quote Originally Posted by sh4rky5 View Post
    Miami Heat vs San Antonio Spurs
    2013.06.11 - 9:00 PM ET

    Language: English
    Ripped by: sh4rky5

    Format: MKV
    Video: H264, 640x360, 800 kbps, 29.97 fps
    Audio: AAC, ~60 kbps, 44.1 KHz, 2 ch
    Size: [ 527 ] MB

    Zippyshare:
    In case of OT:
     

    It is included in the 4th video file. Or not


    Format: MKV
    Video: H264, 960x540, 1500 kbps, 29.97 fps
    Audio: AAC, ~80 kbps, 44.1 KHz, 2 ch
    Size: [ 1015 ] MB

    Zippyshare:
    In case of OT:
     

    It is included in the 4th video file. Or not


    Format: MKV
    Video: H264, 1280x720, 3000 kbps, 29.97 fps
    Audio: AAC, ~130 kbps, 44.1 KHz, 2 ch
    Size: [ 1960 ] MB

    Zippyshare:
    In case of OT:
     

    It is included in the 4th video file. Or not




    RADIO:

    Quote Originally Posted by rubemar21 View Post




    MIAMI HEAT vs SAN ANTONIO SPURS
    NBA FINALS
    GAME 3
    Code:
    (11/06/2013) - ESPAÑOL (sólo audio) Narración: Jordi Broncano Comentarios: Alejandro Huerta, Rodrigo Tato


    Code:
    (11/06/2013) - CATALÁN (sólo audio) Narración: Nino Vàzquez Comentarios: Oscar Périz
    Last edited by wigan88; 14th June 2013 at 01:32.

  2. The Following 61 Users Say Thank You to wigan88 For This Useful Post:

    2ay2aloot22 (12th June 2013), 33montilla (12th June 2013), akirapan (12th June 2013), amk114 (12th June 2013), arghwhymustiregister (12th June 2013), backstreet (12th June 2013), bas8515 (12th June 2013), boccheron (12th June 2013), Brees (12th June 2013), dani188 (12th June 2013), david25cm (12th June 2013), devilgreen (13th June 2013), djmlbp (12th June 2013), eulb (12th June 2013), fegarz (12th June 2013), felime (12th June 2013), gramenaguer67 (12th June 2013), holonia (12th June 2013), hopper (15th June 2013), ivann (12th June 2013), jjbanacloche (12th June 2013), jose_garah (12th June 2013), JRFPTARRA (12th June 2013), juanitolocke (12th June 2013), jurasros (13th June 2013), kris10011 (12th June 2013), kubica04 (12th June 2013), looneytune (12th June 2013), MagicJohnson32 (12th June 2013), mezcolanza (12th June 2013), narcolepsico (12th June 2013), prospettiva (12th June 2013), RALCH (13th June 2013), ruper999 (12th June 2013), sadscient (14th June 2013), skyskyblue (12th June 2013), SonicNarcotic (12th June 2013), specrumm (12th June 2013), stevenage (12th June 2013), texastexas (12th June 2013), theghostcavalier (12th June 2013), TheRadik (12th June 2013), tophat (12th June 2013), Tosupi (12th June 2013), trunks206 (13th June 2013), twofor (12th June 2013), utep (12th June 2013), valenciaocho (12th June 2013), vanlic43 (12th June 2013), vituko (12th June 2013), vivaldi1967 (12th June 2013), wemble (12th June 2013), westend (12th June 2013), xenaphobia (12th June 2013), yanis99 (12th June 2013), yeovil (12th June 2013), yomarianob (12th June 2013), yoohoo (12th June 2013), yyakima (12th June 2013), zestyy (12th June 2013), zoozoo (12th June 2013)

  3. #2
    Senior Member Profesional sppcctv's Avatar
    Join Date
    Apr 2012
    Location
    Albacete, España
    Posts
    3,855
    Thanks
    63
    Thanked 5,682 Times in 2,137 Posts





    Mediainfo:
    Code:
    General
    Unique ID                                : 195621869335251469834090537129459072016 (0x932B66CECC1DA6CB91FA9120024C3C10)
    Complete name                            : N:\Torrents\NBaFnls G3 MIA - SAS Esp 1st 720p.mkv
    Format                                   : Matroska
    Format version                           : Version 4 / Version 2
    File size                                : 1 008 MiB
    Duration                                 : 1h 10mn
    Overall bit rate                         : 2 003 Kbps
    Encoded date                             : UTC 2013-06-12 03:49:21
    Writing application                      : mkvmerge v6.2.0 ('Promised Land') built on Apr 28 2013 12:22:01
    Writing library                          : libebml v1.3.0 + libmatroska v1.4.0
    
    Video
    ID                                       : 1
    Format                                   : AVC
    Format/Info                              : Advanced Video Codec
    Format profile                           : High@L3.2
    Format settings, CABAC                   : Yes
    Format settings, ReFrames                : 4 frames
    Codec ID                                 : V_MPEG4/ISO/AVC
    Duration                                 : 1h 10mn
    Bit rate                                 : 1 904 Kbps
    Width                                    : 1 280 pixels
    Height                                   : 720 pixels
    Display aspect ratio                     : 16:9
    Frame rate                               : 25.000 fps
    Color space                              : YUV
    Chroma subsampling                       : 4:2:0
    Bit depth                                : 8 bits
    Scan type                                : Progressive
    Bits/(Pixel*Frame)                       : 0.083
    Stream size                              : 940 MiB (93%)
    Title                                    : By SppccTeam
    Writing library                          : x264 core 115 r2013 6fce39a
    Encoding settings                        : cabac=1 / ref=3 / deblock=1:0:0 / analyse=0x3:0x13 / me=hex / subme=7 / psy=1 / psy_rd=1.00:0.00 / mixed_ref=1 / me_range=16 / chroma_me=1 / trellis=1 / 8x8dct=1 / cqm=0 / deadzone=21,11 / fast_pskip=1 / chroma_qp_offset=-2 / threads=12 / sliced_threads=0 / nr=0 / decimate=1 / interlaced=0 / bluray_compat=0 / constrained_intra=0 / bframes=3 / b_pyramid=2 / b_adapt=1 / b_bias=0 / direct=1 / weightb=1 / open_gop=0 / weightp=2 / keyint=250 / keyint_min=25 / scenecut=40 / intra_refresh=0 / rc_lookahead=40 / rc=cbr / mbtree=1 / bitrate=1904 / ratetol=1.0 / qcomp=0.60 / qpmin=10 / qpmax=51 / qpstep=4 / vbv_maxrate=1904 / vbv_bufsize=19040 / nal_hrd=none / ip_ratio=1.40 / aq=1:1.00
    Language                                 : Spanish
    Default                                  : Yes
    Forced                                   : No
    
    Audio
    ID                                       : 2
    Format                                   : MPEG Audio
    Format version                           : Version 1
    Format profile                           : Layer 3
    Mode                                     : Joint stereo
    Mode extension                           : MS Stereo
    Codec ID                                 : A_MPEG/L3
    Codec ID/Hint                            : MP3
    Duration                                 : 1h 10mn
    Bit rate mode                            : Constant
    Bit rate                                 : 96.0 Kbps
    Channel(s)                               : 2 channels
    Sampling rate                            : 44.1 KHz
    Compression mode                         : Lossy
    Delay relative to video                  : -4ms
    Stream size                              : 48.3 MiB (5%)
    Title                                    : Canal+ Deportes HD
    Language                                 : Spanish
    Default                                  : Yes
    Forced                                   : No
    Descarga:

    720p

    Primer Tiempo: (Q1 & Q2)
    Uploaded: http://ul.to/vx6t4y8r
    Depositfiles: http://dfiles.eu/files/z1gosdbh0


    Segundo Tiempo: (Q3 & Q4)
    Uploaded: http://ul.to/ump2tv7j
    Depositfiles: http://dfiles.eu/files/ewrgq7q2l


    Link Unico:
    Uploaded: http://ul.to/h5dkgbdk
    Depositfiles: http://dfiles.eu/files/daqwkod73

    Links de 1Gb:
    Uploaded:
    1. http://ul.to/h9jnww8r
    2. http://ul.to/sjps8pgh
    3. http://ul.to/mh6e2u10

    Depositfiles:
    1. http://dfiles.eu/files/rgi45nf24
    2. http://dfiles.eu/files/84h2l3y16
    3. http://dfiles.eu/files/daps2otoc

    TORRENT:
    Archivo.rar Con Imagenes de Muestra y el Torrent Del Partido (Solo Game 3)
    Uploaded: http://ul.to/s0nwci8q
    Depositfiles: http://dfiles.eu/files/9p1f10eqm


    400p

    Primer Tiempo: (Q1 & Q2)
    Uploaded: http://ul.to/qhlybmx3
    Depositfiles: http://dfiles.eu/files/0j7ji05pu


    Segundo Tiempo: (Q3 & Q4)
    Uploaded: http://ul.to/8ijinn1x
    Depositfiles: http://dfiles.eu/files/a93y3jd0j


    Link Unico:
    Uploaded: http://ul.to/n66n2g1k
    Depositfiles: http://dfiles.eu/files/3veladbtv

    Links de 1Gb:
    Uploaded:
    1. http://ul.to/eekwag7x
    2. http://ul.to/st6bb0cb

    Depositfiles:
    1. http://dfiles.eu/files/rfl693et1
    2. http://dfiles.eu/files/69iho8zvl

    TORRENT:
    Archivo.rar Con Imagenes de Muestra y el Torrent Del Partido (Solo Game 3)
    Uploaded: http://ul.to/1w9hio7b
    Depositfiles: http://dfiles.eu/files/2vb2841zg

    Last edited by sppcctv; 12th June 2013 at 17:24.
    Si por alguna casualidad RD cerrase, os podeís poner en contacto conmigo a través de Forocoches.

    Register Free Or Buy A Premium Account On Uploaded HERE
    Registrate Gratis O Compra una Cuenta Premium de Uploaded AQUI

    Eventos a la carta, Elige resolución, Idioma y Servidor del evento que quieras (Pasado o Futuro). MAS INFO AQUÍ.

  4. The Following 25 Users Say Thank You to sppcctv For This Useful Post:

    angelmonroy (12th June 2013), arcelorin (20th July 2013), asistencia (14th June 2013), boccheron (12th June 2013), devilgreen (13th June 2013), elporesosmundos (12th June 2013), el_edu1 (12th June 2013), gabber_bcn (12th June 2013), Goiko74 (12th June 2013), isans (12th June 2013), ivann (12th June 2013), Javivi79 (12th June 2013), jose_garah (12th June 2013), kubica04 (12th June 2013), Migueeelsp (12th June 2013), pasajero57 (12th June 2013), pillei (12th June 2013), prospettiva (12th June 2013), ruper999 (12th June 2013), theghostcavalier (12th June 2013), TheRadik (12th June 2013), torpeglu1 (12th June 2013), vituko (12th June 2013), wasomen (12th June 2013), Yuhuuuu (12th June 2013)

  5. #3
    Senior Member Balón de oro
    Join Date
    Oct 2010
    Posts
    13,388
    Thanks
    807
    Thanked 17,759 Times in 7,607 Posts

    Wink NBA 2013 Finals - Game 2: Miami Heat @ San Antonio Spurs (2013.06.11)

    NBA 2013 Finals - Game 3
    Miami Heat vs San Antonio Spurs


    2013.06.11 - 21:00 ET






    Code:
    Language............: English
    Ripper..............: Reborn4HD
    Size................: 4.16 GB
    Format..............: mkv
    Resolution..........: 1280x720
    Video...............: H.264, 4500 Kbps @ 59.94 fps
    Audio...............: AAC, 128 Kbps, 44.1 KHz, 2 channels
    Release Note........: Unnecessary Footage Between Quarters Removed.




    Code:
    http://uploaded.net/file/zb0j2hg3/NBA.2013.Finals.G3.Heat.vs.Spurs.720p.ilprip.60fps.x264-Reborn4HD.mkv
     
    or
     
    http://rapidstation.com/hjo2idk8a8uv/NBA.2013.Finals.G3.Heat.vs.Spurs.720p.ilprip.60fps.x264-Reborn4HD.mkv.html



    Code:
    http://uploaded.net/file/5qs3jju8/NBA.2013.Finals.G3.Heat.vs.Spurs.720p.ilprip.60fps.x264-Reborn4HD-1.mkv
    http://uploaded.net/file/hp5thh7w/NBA.2013.Finals.G3.Heat.vs.Spurs.720p.ilprip.60fps.x264-Reborn4HD-2.mkv
    http://uploaded.net/file/byxtleu9/NBA.2013.Finals.G3.Heat.vs.Spurs.720p.ilprip.60fps.x264-Reborn4HD-3.mkv
    http://uploaded.net/file/iflz9puj/NBA.2013.Finals.G3.Heat.vs.Spurs.720p.ilprip.60fps.x264-Reborn4HD-4.mkv
     
    or
     
    http://rapidstation.com/05cvmfnwi3j9/NBA.2013.Finals.G3.Heat.vs.Spurs.720p.ilprip.60fps.x264-Reborn4HD-1.mkv.html
    http://rapidstation.com/3lny9etvcxrg/NBA.2013.Finals.G3.Heat.vs.Spurs.720p.ilprip.60fps.x264-Reborn4HD-2.mkv.html
    http://rapidstation.com/euv2sgu965yk/NBA.2013.Finals.G3.Heat.vs.Spurs.720p.ilprip.60fps.x264-Reborn4HD-3.mkv.html
    http://rapidstation.com/brifl89b19lp/NBA.2013.Finals.G3.Heat.vs.Spurs.720p.ilprip.60fps.x264-Reborn4HD-4.mkv.html
    Extra time if any
     

    if there is any, it is included in 4th quarter.




    Enjoy and a simple thanks to me would be great!

    Last edited by kclayman; 12th June 2013 at 06:48.

  6. The Following 12 Users Say Thank You to kclayman For This Useful Post:

    bt67s (12th June 2013), devilgreen (13th June 2013), Fukoh (12th June 2013), gurak2005 (12th June 2013), javivivati (12th June 2013), lechugui (12th June 2013), MarQu1s (12th June 2013), prospettiva (12th June 2013), roberffb (12th June 2013), ruper999 (12th June 2013), theghostcavalier (12th June 2013), vituko (12th June 2013)

  7. #4
    Senior Member Balón de oro
    Join Date
    Oct 2010
    Posts
    13,388
    Thanks
    807
    Thanked 17,759 Times in 7,607 Posts
    NBA 2013 Finals - Game 3
    Miami Heat vs San Antonio Spurs


    2013.06.11 - 21:00 ET






    Code:
    Language............: English
    Ripper..............: Reborn4HD
    Size................: 2.70 GB
    Format..............: mkv
    Resolution..........: 1280x720
    Video...............: H.264, 3000 Kbps @ 29.97 fps
    Audio...............: AAC, 128 Kbps, 44.1 KHz, 2 channels
    Release Note........: Unnecessary Footage Between Quarters Removed.




    Code:
    http://uploaded.net/file/hv8knf84/NBA.2013.Finals.G3.Heat.vs.Spurs.720p.ilprip.30fps.x264-Reborn4HD.mkv
    
    or
    
    http://rapidstation.com/pwxi1wfd9aya/NBA.2013.Finals.G3.Heat.vs.Spurs.720p.ilprip.30fps.x264-Reborn4HD.mkv.html



    Code:
    http://uploaded.net/file/k8u2xrpw/NBA.2013.Finals.G3.Heat.vs.Spurs.720p.ilprip.30fps.x264-Reborn4HD-1.mkv
    http://uploaded.net/file/bk6m4ss6/NBA.2013.Finals.G3.Heat.vs.Spurs.720p.ilprip.30fps.x264-Reborn4HD-2.mkv
    http://uploaded.net/file/8jvs88qr/NBA.2013.Finals.G3.Heat.vs.Spurs.720p.ilprip.30fps.x264-Reborn4HD-3.mkv
    http://uploaded.net/file/mda07twi/NBA.2013.Finals.G3.Heat.vs.Spurs.720p.ilprip.30fps.x264-Reborn4HD-4.mkv
    
    or
    
    http://rapidstation.com/imbkwcan39kh/NBA.2013.Finals.G3.Heat.vs.Spurs.720p.ilprip.30fps.x264-Reborn4HD-1.mkv.html
    http://rapidstation.com/z8stlips46ee/NBA.2013.Finals.G3.Heat.vs.Spurs.720p.ilprip.30fps.x264-Reborn4HD-2.mkv.html
    http://rapidstation.com/ectp1dvckgsb/NBA.2013.Finals.G3.Heat.vs.Spurs.720p.ilprip.30fps.x264-Reborn4HD-3.mkv.html
    http://rapidstation.com/775miqrv4ala/NBA.2013.Finals.G3.Heat.vs.Spurs.720p.ilprip.30fps.x264-Reborn4HD-4.mkv.html
    Extra time if any
     

    if there is any, it is included in 4th quarter.




    Enjoy and a simple thanks to me would be great!

    Last edited by kclayman; 12th June 2013 at 06:48.

  8. The Following 9 Users Say Thank You to kclayman For This Useful Post:

    angelmonroy (12th June 2013), devilgreen (13th June 2013), gunga-din (12th June 2013), jurasros (13th June 2013), MarQu1s (12th June 2013), prospettiva (12th June 2013), roberffb (12th June 2013), ruper999 (12th June 2013), theghostcavalier (12th June 2013)

  9. #5
    Senior Member Balón de oro
    Join Date
    Mar 2010
    Posts
    27,172
    Thanks
    96
    Thanked 22,985 Times in 11,605 Posts
    NBA Finals 2013, Game #3: Miami Heat vs. San Antonio Spurs 11-06-2013





    Format : mpeg
    File size : 2.0 GiB
    Source:CANAL+ HD
    Resolution:1280 X 720
    Language:Spanish

    Last edited by lizhengxiang; 12th June 2013 at 05:48.

  10. The Following 16 Users Say Thank You to lizhengxiang For This Useful Post:

    angelmonroy (12th June 2013), AORTONI (12th June 2013), arcelorin (20th July 2013), bixirulo (12th June 2013), boccheron (12th June 2013), devilgreen (13th June 2013), foendkl (12th June 2013), jjbanacloche (12th June 2013), jose_garah (12th June 2013), kubica04 (12th June 2013), mclll (12th June 2013), prospettiva (12th June 2013), roberffb (12th June 2013), ruper999 (12th June 2013), theghostcavalier (12th June 2013), vituko (12th June 2013)

  11. #6
    Senior Member Balón de oro
    Join Date
    Mar 2010
    Posts
    27,172
    Thanks
    96
    Thanked 22,985 Times in 11,605 Posts
    POST #5 DONE,enjoy!!!

  12. #7
    Senior Member Balón de oro
    Join Date
    Oct 2010
    Posts
    13,388
    Thanks
    807
    Thanked 17,759 Times in 7,607 Posts
    post #3 #4 done.

  13. #8
    Senior Member Amateur
    Join Date
    Jan 2011
    Posts
    152
    Thanks
    27
    Thanked 44 Times in 24 Posts
    thanks for sharing!

  14. #9
    Junior Member Principiante
    Join Date
    Feb 2013
    Posts
    7
    Thanks
    10
    Thanked 1 Time in 1 Post
    thanks!!!!!

  15. #10
    Senior Member Profesional sppcctv's Avatar
    Join Date
    Apr 2012
    Location
    Albacete, España
    Posts
    3,855
    Thanks
    63
    Thanked 5,682 Times in 2,137 Posts





    Mediainfo:
    Code:
    General
    Unique ID                                : 229028325898658739999814607598240706673 (0xAC4D4047D5AEFD34959183C82D94B071)
    Complete name                            : N:\Torrents\NBaFnls G3 MIA - SAS Esp 400p.mkv
    Format                                   : Matroska
    Format version                           : Version 4 / Version 2
    File size                                : 1.36 GiB
    Duration                                 : 2h 23mn
    Overall bit rate                         : 1 358 Kbps
    Encoded date                             : UTC 2013-06-12 04:09:05
    Writing application                      : mkvmerge v6.2.0 ('Promised Land') built on Apr 28 2013 12:22:01
    Writing library                          : libebml v1.3.0 + libmatroska v1.4.0
    
    Video
    ID                                       : 1
    Format                                   : AVC
    Format/Info                              : Advanced Video Codec
    Format profile                           : Main@L3.0
    Format settings, CABAC                   : Yes
    Format settings, ReFrames                : 4 frames
    Codec ID                                 : V_MPEG4/ISO/AVC
    Duration                                 : 2h 23mn
    Nominal bit rate                         : 1 200 Kbps
    Width                                    : 720 pixels
    Height                                   : 400 pixels
    Display aspect ratio                     : 16:9
    Frame rate                               : 25.000 fps
    Color space                              : YUV
    Chroma subsampling                       : 4:2:0
    Bit depth                                : 8 bits
    Scan type                                : Progressive
    Bits/(Pixel*Frame)                       : 0.167
    Writing library                          : x264 core 120
    Encoding settings                        : cabac=1 / ref=1 / deblock=1:0:0 / analyse=0x1:0x111 / me=hex / subme=2 / psy=1 / psy_rd=1.00:0.00 / mixed_ref=0 / me_range=16 / chroma_me=1 / trellis=0 / 8x8dct=0 / cqm=0 / deadzone=21,11 / fast_pskip=1 / chroma_qp_offset=0 / threads=12 / sliced_threads=0 / nr=0 / decimate=1 / interlaced=0 / bluray_compat=0 / constrained_intra=0 / bframes=3 / b_pyramid=2 / b_adapt=1 / b_bias=0 / direct=1 / weightb=1 / open_gop=0 / weightp=1 / keyint=250 / keyint_min=25 / scenecut=40 / intra_refresh=0 / rc_lookahead=10 / rc=abr / mbtree=1 / bitrate=1200 / ratetol=1.0 / qcomp=0.60 / qpmin=3 / qpmax=69 / qpstep=4 / ip_ratio=1.40 / aq=1:1.00
    Language                                 : English
    Default                                  : Yes
    Forced                                   : No
    Color primaries                          : BT.709-5, BT.1361, IEC 61966-2-4, SMPTE RP177
    Transfer characteristics                 : BT.709-5, BT.1361
    Matrix coefficients                      : BT.709-5, BT.1361, IEC 61966-2-4 709, SMPTE RP177
    
    Audio
    ID                                       : 2
    Format                                   : AAC
    Format/Info                              : Advanced Audio Codec
    Format profile                           : LC
    Codec ID                                 : A_AAC
    Duration                                 : 2h 23mn
    Channel(s)                               : 2 channels
    Channel positions                        : Front: L R
    Sampling rate                            : 44.1 KHz
    Compression mode                         : Lossy
    Title                                    : Canal+ Deportes HD
    Language                                 : Spanish
    Default                                  : Yes
    Forced                                   : No
    Descarga Torrent:

    Archivo.rar Con Imagenes de Muestra y el Torrent de los 3 Partidos disputados (Si quereis descargar solo un Game, desmarcar los demas)

    Uploaded: http://ul.to/znl7wzfy
    Depositfiles: http://dfiles.eu/files/c7krwbuti

    Last edited by sppcctv; 12th June 2013 at 17:25.
    Si por alguna casualidad RD cerrase, os podeís poner en contacto conmigo a través de Forocoches.

    Register Free Or Buy A Premium Account On Uploaded HERE
    Registrate Gratis O Compra una Cuenta Premium de Uploaded AQUI

    Eventos a la carta, Elige resolución, Idioma y Servidor del evento que quieras (Pasado o Futuro). MAS INFO AQUÍ.

  16. The Following 6 Users Say Thank You to sppcctv For This Useful Post:

    angelmonroy (12th June 2013), ArvydasSabonis (12th June 2013), boccheron (12th June 2013), ivann (12th June 2013), solchante (12th June 2013), theghostcavalier (12th June 2013)

Posting Permissions

  • You may not post new threads
  • You may not post replies
  • You may not post attachments
  • You may not edit your posts
  •