Page 1 of 4 123 ... LastLast
Results 1 to 10 of 37

Thread: NBA Finals 2013, Game #4: Miami Heat vs. San Antonio Spurs 13-06-2013

Share |
  1. #1
    Senior Member Crack wigan88's Avatar
    Join Date
    May 2011
    Location
    Philadelphia, Pa., USA
    Posts
    6,308
    Thanks
    28
    Thanked 53,585 Times in 4,916 Posts

    NBA Finals 2013, Game #4: Miami Heat vs. San Antonio Spurs 13-06-2013

    SPANISH:

    NBA Finals 2013, Game #4: Miami Heat vs. San Antonio Spurs [1400 kbps], 6-13-2013, courtesy of CANAL+ Deportes. Links below:








    Commentary: Spanish
    File Format: FLV
    Resolution: 720 X 576
    Total Size: 1225 MB

    1st Quarter:

    http://adf.ly/QUciX

    http://adf.ly/QUfLL

    2nd Quarter:

    http://adf.ly/QUjhH

    3rd Quarter:

    http://adf.ly/QUp4B

    4th Quarter:

    http://adf.ly/QUqe3

    http://adf.ly/QUsLn

    Overtime, if necessary:
     

    ---------------


    Enjoy Everyone!!!

    Wigan

    Quote Originally Posted by sppcctv View Post





    Mediainfo:
    Code:
    General
    Unique ID                                : 234993209495274075692505122174094252347 (0xB0CA0BBF6966C4F0A29D634CC83F993B)
    Complete name                            : N:\Torrents\NBaFnls G4 MIA - SAS Esp 720p 1st.mkv
    Format                                   : Matroska
    Format version                           : Version 4 / Version 2
    File size                                : 1.10 GiB
    Duration                                 : 1h 22mn
    Overall bit rate                         : 1 909 Kbps
    Encoded date                             : UTC 2013-06-14 02:36:47
    Writing application                      : mkvmerge v6.2.0 ('Promised Land') built on Apr 28 2013 12:22:01
    Writing library                          : libebml v1.3.0 + libmatroska v1.4.0
    
    Video
    ID                                       : 1
    Format                                   : AVC
    Format/Info                              : Advanced Video Codec
    Format profile                           : High@L3.2
    Format settings, CABAC                   : Yes
    Format settings, ReFrames                : 4 frames
    Codec ID                                 : V_MPEG4/ISO/AVC
    Duration                                 : 1h 22mn
    Bit rate                                 : 1 775 Kbps
    Nominal bit rate                         : 1 904 Kbps
    Width                                    : 1 280 pixels
    Height                                   : 720 pixels
    Display aspect ratio                     : 16:9
    Frame rate                               : 25.000 fps
    Color space                              : YUV
    Chroma subsampling                       : 4:2:0
    Bit depth                                : 8 bits
    Scan type                                : Progressive
    Bits/(Pixel*Frame)                       : 0.077
    Stream size                              : 1.02 GiB (93%)
    Title                                    : By SppccTeam
    Writing library                          : x264 core 115 r2013 6fce39a
    Encoding settings                        : cabac=1 / ref=3 / deblock=1:0:0 / analyse=0x3:0x13 / me=hex / subme=7 / psy=1 / psy_rd=1.00:0.00 / mixed_ref=1 / me_range=16 / chroma_me=1 / trellis=1 / 8x8dct=1 / cqm=0 / deadzone=21,11 / fast_pskip=1 / chroma_qp_offset=-2 / threads=12 / sliced_threads=0 / nr=0 / decimate=1 / interlaced=0 / bluray_compat=0 / constrained_intra=0 / bframes=3 / b_pyramid=2 / b_adapt=1 / b_bias=0 / direct=1 / weightb=1 / open_gop=0 / weightp=2 / keyint=250 / keyint_min=25 / scenecut=40 / intra_refresh=0 / rc_lookahead=40 / rc=cbr / mbtree=1 / bitrate=1904 / ratetol=1.0 / qcomp=0.60 / qpmin=10 / qpmax=51 / qpstep=4 / vbv_maxrate=1904 / vbv_bufsize=19040 / nal_hrd=none / ip_ratio=1.40 / aq=1:1.00
    Language                                 : Spanish
    Default                                  : Yes
    Forced                                   : No
    
    Audio
    ID                                       : 2
    Format                                   : MPEG Audio
    Format version                           : Version 1
    Format profile                           : Layer 3
    Mode                                     : Joint stereo
    Mode extension                           : MS Stereo
    Codec ID                                 : A_MPEG/L3
    Codec ID/Hint                            : MP3
    Duration                                 : 1h 22mn
    Bit rate mode                            : Constant
    Bit rate                                 : 96.0 Kbps
    Channel(s)                               : 2 channels
    Sampling rate                            : 44.1 KHz
    Compression mode                         : Lossy
    Delay relative to video                  : -90ms
    Stream size                              : 56.5 MiB (5%)
    Title                                    : Canal+ Deportes HD
    Language                                 : Spanish
    Default                                  : Yes
    Forced                                   : No

    Descarga:

    720p:


    Primera Parte: (Q1 & Q2)
    Uploaded: http://ul.to/8l5hnz3c
    Depositfiles: http://dfiles.eu/files/q2vtno6zw

    Segunda Parte: (Q3 & Q4)
    Uploaded: http://ul.to/wp0rimqm
    Depositfiles: http://dfiles.eu/files/m5dga0zx8

    Link Unico:
    Uploaded: http://ul.to/r85hy9ae
    Depositfiles: http://dfiles.eu/files/g69ks2xtx

    Links de 1Gb:
    Uploaded:
    1. http://ul.to/ulfoadku
    2. http://ul.to/rhswti1s
    3. http://ul.to/0xf7wld0

    Depositfiles:
    1. http://dfiles.eu/files/ps72lwwjl
    2. http://dfiles.eu/files/ntgqazoeu
    3. http://dfiles.eu/files/cg7vcvorc

    TORRENT:
    Archivo.rar Con Imagenes de Muestra y el Torrent del Game 3
    Uploaded: http://ul.to/126fksfy
    Depositfiles: http://dfiles.eu/files/5k6l8soju


    400p

    Primera Parte: (Q1 & Q2)
    Uploaded: http://ul.to/126fksfy
    Depositfiles: http://dfiles.eu/files/qebxs8w3o

    Segunda Parte: (Q3 & Q4)
    Uploaded: http://ul.to/2rhvhcqu
    Depositfiles: http://dfiles.eu/files/lv7e5h67f

    Link Unico:
    Uploaded: http://ul.to/tneqs5i2
    [COLOR="#FF0000"]Depositfiles:[/COLOR http://dfiles.eu/files/24q99juil

    Links de 1Gb:
    Uploaded:
    1. http://ul.to/q6zx0aak
    2. http://ul.to/al8p1svq

    Depositfiles:
    1. http://dfiles.eu/files/jkdjp54zw
    2. http://dfiles.eu/files/sqppdaote

    TORRENT:
    Archivo.rar Con Imagenes de Muestra y el Torrent del Game 3
    Uploaded: http://ul.to/qwhnis0g
    Depositfiles: http://dfiles.eu/files/h9mftyrs9

    Quote Originally Posted by lizhengxiang View Post
    NBA Finals 2013, Game #4: Miami Heat vs. San Antonio Spurs 13-06-2013







    Format : mpeg
    File size : 2.10 GiB
    Source:CANAL+ HD
    Resolution:1280 X 720
    Language:Spanish

    Quote Originally Posted by sppcctv View Post





    Mediainfo:
    Code:
    General
    Unique ID                                : 178398005096776319112499487516585149985 (0x863634BCA4ED96BDA01410CFE8ECC621)
    Complete name                            : N:\Torrents\NBaFnls G4 MIA - SAS Esp 400p.mkv
    Format                                   : Matroska
    Format version                           : Version 4 / Version 2
    File size                                : 1.49 GiB
    Duration                                 : 2h 39mn
    Overall bit rate                         : 1 334 Kbps
    Encoded date                             : UTC 2013-06-14 05:08:18
    Writing application                      : mkvmerge v6.2.0 ('Promised Land') built on Apr 28 2013 12:22:01
    Writing library                          : libebml v1.3.0 + libmatroska v1.4.0
    
    Video
    ID                                       : 1
    Format                                   : AVC
    Format/Info                              : Advanced Video Codec
    Format profile                           : Main@L3.0
    Format settings, CABAC                   : Yes
    Format settings, ReFrames                : 4 frames
    Codec ID                                 : V_MPEG4/ISO/AVC
    Duration                                 : 2h 39mn
    Nominal bit rate                         : 1 200 Kbps
    Width                                    : 720 pixels
    Height                                   : 400 pixels
    Display aspect ratio                     : 16:9
    Frame rate                               : 25.000 fps
    Color space                              : YUV
    Chroma subsampling                       : 4:2:0
    Bit depth                                : 8 bits
    Scan type                                : Progressive
    Bits/(Pixel*Frame)                       : 0.167
    Title                                    : By SppccTeam
    Writing library                          : x264 core 120
    Encoding settings                        : cabac=1 / ref=1 / deblock=1:0:0 / analyse=0x1:0x111 / me=hex / subme=2 / psy=1 / psy_rd=1.00:0.00 / mixed_ref=0 / me_range=16 / chroma_me=1 / trellis=0 / 8x8dct=0 / cqm=0 / deadzone=21,11 / fast_pskip=1 / chroma_qp_offset=0 / threads=12 / sliced_threads=0 / nr=0 / decimate=1 / interlaced=0 / bluray_compat=0 / constrained_intra=0 / bframes=3 / b_pyramid=2 / b_adapt=1 / b_bias=0 / direct=1 / weightb=1 / open_gop=0 / weightp=1 / keyint=250 / keyint_min=25 / scenecut=40 / intra_refresh=0 / rc_lookahead=10 / rc=abr / mbtree=1 / bitrate=1200 / ratetol=1.0 / qcomp=0.60 / qpmin=3 / qpmax=69 / qpstep=4 / ip_ratio=1.40 / aq=1:1.00
    Language                                 : Spanish
    Default                                  : Yes
    Forced                                   : No
    Color primaries                          : BT.709-5, BT.1361, IEC 61966-2-4, SMPTE RP177
    Transfer characteristics                 : BT.709-5, BT.1361
    Matrix coefficients                      : BT.709-5, BT.1361, IEC 61966-2-4 709, SMPTE RP177
    
    Audio
    ID                                       : 2
    Format                                   : AAC
    Format/Info                              : Advanced Audio Codec
    Format profile                           : LC
    Codec ID                                 : A_AAC
    Duration                                 : 2h 39mn
    Channel(s)                               : 2 channels
    Channel positions                        : Front: L R
    Sampling rate                            : 44.1 KHz
    Compression mode                         : Lossy
    Title                                    : Canal+ Deportes HD
    Language                                 : Spanish
    Default                                  : Yes
    Forced                                   : No
    Descarga Torrent:
    Archivo.rar Con Imagenes de Muestra y el Torrent de los 4 Games disputados (Si se desea descargar solo uno, desmarcar la casilla de los demas)

    Uploaded: http://ul.to/kxdwwy8f
    Depositfiles: http://dfiles.eu/files/q7kx9sn38

    Quote Originally Posted by Sagopa Kajmer View Post

    NBA Finals - Game 4 - 13/06/2013
    San Antonio Spurs v. Miami Heat
    _________________________________________________

    Broadcast : Canal+ HD Language : Spanish Source : DVBRIP
    Encoding : video 2000 Kbps h.264 mpeg-ts 25fps - audio mp3 128kbps Duration : 02:00:00
    Size : ~2,5GB Release Type : HD 720p Full Match

    _________________________________________________




    1st Quarter

    http://ul.to/ol9a0uz5

    2nd Quarter

    http://ul.to/ejgtds8j

    3rd Quarter

    http://ul.to/m0gy7x5x

    4th Quarter

    http://ul.to/4vckuce1

    or

    1st Half

    http://ul.to/ep0xebhx

    2nd Half

    http://ul.to/ak2c2zqt

    Overtime (if any!)

     
    no



    _________________________________________________

    Broadcast : Canal+ HD Language : Spanish Source : DVBRIP
    Encoding : video 1500 Kbps h.264 mkv 25fps - audio mp3 128kbps Duration : 02:00:00
    Size : ~1,5GB Release Type : SD 400p Full Match

    _________________________________________________




    1st Quarter

    http://ul.to/5abb9vm3

    2nd Quarter

    http://ul.to/fvfbvatf

    3rd Quarter

    http://ul.to/2qtmql31

    4th Quarter

    http://ul.to/f91b1q4e

    or

    1st Half

    http://ul.to/2asl0s9j

    2nd Half

    http://ul.to/7n4b7eyj

    Overtime (if any!)

     
    no



    _________________________________________________

    Broadcast : ESPN HD Language : English Source : DVBRIP
    Encoding : video 4000 Kbps h.264 mkv 60fps - audio AC3 384kbps Duration : 02:00:00
    Size : ~4,5GB Release Type : HD 720p Full Match

    _________________________________________________




    1st Half

    http://ul.to/ncgt3ngn

    2nd Half

    http://ul.to/bolaoorj

    Overtime (if any!)

     
    no



    _________________________________________________

    Broadcast : ESPN HD Language : English Source : DVBRIP
    Encoding : video 1500 Kbps h.264 mkv 60fps - audio mp3 128kbps Duration : 02:00:00
    Size : ~1,5GB Release Type : SD 400p Full Match

    _________________________________________________




    1st Half

    http://ul.to/j0eu9kvx

    2nd Half

    http://ul.to/z1j8eokx

    Overtime (if any!)

     
    no



    _________________________________________________

    Broadcast : ESPN HD Language : English Source : DVBRIP
    Encoding : video 3000 Kbps h.264 mkv 30fps - audio AC3 384kbps Duration : 02:00:00
    Size : ~3GB Release Type : HD 720p Full Match

    _________________________________________________




    1st Half

    http://ul.to/zlou3tef

    2nd Half

    http://ul.to/y2nov134

    Overtime (if any!)

     
    no



    _________________________________________________

    Broadcast : ESPN HD Language : English Source : DVBRIP
    Encoding : video 1500 Kbps h.264 mkv 30fps - audio mp3 128kbps Duration : 02:00:00
    Size : ~1,5GB Release Type : SD 400p Full Match

    _________________________________________________




    1st Half

    http://ul.to/kthfjby9

    2nd Half

    http://ul.to/n13w7u3u

    Overtime (if any!)

     
    no
    Quote Originally Posted by mokotronk View Post





    By: mokotronk
    Idioma: Español
    Formato: MKV
    Resolución: 512x288
    Tamaño: 853 Mb



    1ª Parte
    http://www.putlocker.com/file/00777D0A017D3858

    2ª Parte
    http://www.putlocker.com/file/7A381F3AAED9679D

    Tiempo Extra
     
    Si hubiese estará siempre añadido a la 2ª parte o al 4º cuarto


    ENGLISH:

    NBA Finals 2013, Game #4: Miami Heat vs. San Antonio Spurs [1200 kbps], 6-13-2013, courtesy of ABC SPORTS. Links below:








    Commentary: English
    File Format: WMV
    Resolution: 936 X 504
    Total Size: 1192 MB

    1st Quarter:

    http://adf.ly/QUf32

    2nd Quarter:

    http://adf.ly/QUjpp

    3rd Quarter:

    http://adf.ly/QUm6D

    http://adf.ly/QUoj8

    4th Quarter:

    http://adf.ly/QUtOo

    Overtime, if necessary:
     

    ---------------


    Enjoy Everyone!!!

    Wigan





    Quote Originally Posted by kclayman View Post
    NBA 2013 Finals - Game 4
    Miami Heat vs San Antonio Spurs


    2013.06.13 - 21:00 ET








    Code:
    Language............: English
    Ripper..............: Reborn4HD
    Size................: 4.63 GB
    Format..............: mkv
    Resolution..........: 1280x720
    Video...............: H.264, 4500 Kbps @ 59.94 fps
    Audio...............: AAC, 128 Kbps, 44.1 KHz, 2 channels
    Release Note........: Unnecessary Footage Between Quarters Removed.




    Code:
    http://uploaded.net/file/5kdk1u1x/NBA.2013.Finals.G4.Heat.vs.Spurs.720p.ilprip.60fps.x264-Reborn4HD.mkv
    
    or
    
    http://rapidstation.com/3v6h1k3cw8w2/NBA.2013.Finals.G4.Heat.vs.Spurs.720p.ilprip.60fps.x264-Reborn4HD.mkv.html



    Code:
    http://uploaded.net/file/l0lxw9ho/NBA.2013.Finals.G4.Heat.vs.Spurs.720p.ilprip.60fps.x264-Reborn4HD-1.mkv
    http://uploaded.net/file/fa5s7gaz/NBA.2013.Finals.G4.Heat.vs.Spurs.720p.ilprip.60fps.x264-Reborn4HD-2.mkv
    http://uploaded.net/file/ai9eufqc/NBA.2013.Finals.G4.Heat.vs.Spurs.720p.ilprip.60fps.x264-Reborn4HD-3.mkv
    http://uploaded.net/file/c2eh4kag/NBA.2013.Finals.G4.Heat.vs.Spurs.720p.ilprip.60fps.x264-Reborn4HD-4.mkv
    
    or
    
    http://rapidstation.com/pqelqikge4dg/NBA.2013.Finals.G4.Heat.vs.Spurs.720p.ilprip.60fps.x264-Reborn4HD-1.mkv.html
    http://rapidstation.com/szi9lpc3cw2n/NBA.2013.Finals.G4.Heat.vs.Spurs.720p.ilprip.60fps.x264-Reborn4HD-2.mkv.html
    http://rapidstation.com/t3deteclpbnp/NBA.2013.Finals.G4.Heat.vs.Spurs.720p.ilprip.60fps.x264-Reborn4HD-3.mkv.html
    http://rapidstation.com/fgx3qc8821vw/NBA.2013.Finals.G4.Heat.vs.Spurs.720p.ilprip.60fps.x264-Reborn4HD-4.mkv.html
    Extra time if any
     

    if there is any, it is included in 4th quarter.




    Enjoy and a simple thanks to me would be great!





    Quote Originally Posted by kclayman View Post
    NBA 2013 Finals - Game 4
    Miami Heat vs San Antonio Spurs


    2013.06.13 - 21:00 ET








    Code:
    Language............: English
    Ripper..............: Reborn4HD
    Size................: 2.95 GB
    Format..............: mkv
    Resolution..........: 1280x720
    Video...............: H.264, 3000 Kbps @ 29.97 fps
    Audio...............: AAC, 128 Kbps, 44.1 KHz, 2 channels
    Release Note........: Unnecessary Footage Between Quarters Removed.




    Code:
    http://uploaded.net/file/422jnz3b/NBA.2013.Finals.G4.Heat.vs.Spurs.720p.ilprip.30fps.x264-Reborn4HD.mkv
    
    or
    
    http://rapidstation.com/a28r8y568sbn/NBA.2013.Finals.G4.Heat.vs.Spurs.720p.ilprip.30fps.x264-Reborn4HD.mkv.html



    Code:
    http://uploaded.net/file/0tuahuus/NBA.2013.Finals.G4.Heat.vs.Spurs.720p.ilprip.30fps.x264-Reborn4HD-1.mkv
    http://uploaded.net/file/agjj8xsu/NBA.2013.Finals.G4.Heat.vs.Spurs.720p.ilprip.30fps.x264-Reborn4HD-2.mkv
    http://uploaded.net/file/3ocyl54q/NBA.2013.Finals.G4.Heat.vs.Spurs.720p.ilprip.30fps.x264-Reborn4HD-3.mkv
    http://uploaded.net/file/wjv8nzre/NBA.2013.Finals.G4.Heat.vs.Spurs.720p.ilprip.30fps.x264-Reborn4HD-4.mkv
    
    or
    
    http://rapidstation.com/l5m5xpe913l1/NBA.2013.Finals.G4.Heat.vs.Spurs.720p.ilprip.30fps.x264-Reborn4HD-1.mkv.html
    http://rapidstation.com/1fzcqgs5kr2b/NBA.2013.Finals.G4.Heat.vs.Spurs.720p.ilprip.30fps.x264-Reborn4HD-2.mkv.html
    http://rapidstation.com/9o7uzs8s7dqu/NBA.2013.Finals.G4.Heat.vs.Spurs.720p.ilprip.30fps.x264-Reborn4HD-3.mkv.html
    http://rapidstation.com/61vcw2ptrtfx/NBA.2013.Finals.G4.Heat.vs.Spurs.720p.ilprip.30fps.x264-Reborn4HD-4.mkv.html
    Extra time if any
     

    if there is any, it is included in 4th quarter.




    Enjoy and a simple thanks to me would be great!





    Quote Originally Posted by lizhengxiang View Post
    NBA Finals 2013, Game #4: Miami Heat vs. San Antonio Spurs 13-06-2013





    Format : mpeg
    File size : 2.13 GiB
    Source:ESPN HD
    Resolution:1280 X 720
    Language:English





    Quote Originally Posted by yosinocoupe View Post








    Ingles/English | Avi | 1280x720 - Alta Definicion/High Definition | 2.49 Gb




    http://www51.zippyshare.com/v/95431181/file.html
    http://www.ziddu.com/download/223700...3.torrent.html

    Prorroga (si hubiese)
     
    Si hubiese, siempre estaria incluida en el unico link


    Ripper - waha

    Nota: Este torrent solo contiene el Game 4







    Quote Originally Posted by yosinocoupe View Post








    Ingles/English | MKV | 1280x720 - 60 frames por segundo - Alta Definicion/High Definition | 4.17 Gb




    http://www58.zippyshare.com/v/80844594/file.html
    http://www.ziddu.com/download/223701...3.torrent.html

    Prorroga (si hubiese)
     
    Si hubiese, siempre estaria incluida en el unico link


    Ripper - m4rtyr

    Nota: Este torrent contiene los Games 1, 2, 3 y 4. Si solo queremos descargar el Game 4, desmarcar los anteriores Games.







    Quote Originally Posted by GreenGT View Post


    English
    Ripper - GreenGT
    Video: MPEG4 Video (H264) | 640x360 | 29.97 fps | 800kbps
    Audio: AAC | 44100Hz | stereo | 64kbps
    Size - 602 Mb



    Full Match in MP4 file:

    Code:
    http://ul.to/hh0a0xl4


    Full Match in MP4 file:

    Code:
    http://ryushare.com/zqyv51o3qoyj


    Full Match in MP4 file:

    Code:
    http://junocloud.me/rkp9xk2fxgc0



    Quote Originally Posted by GreenGT View Post


    English
    Ripper - GreenGT
    Video: MPEG4 Video (H264) | 960x540 | 29.97 fps | 1500kbps
    Audio: AAC | 44100Hz | stereo | 64kbps
    Size - 1.13 Gb



    Full Match in MP4 file:

    Code:
    http://ul.to/v15av7lz
    Full Match in RAR Archive

    Code:
    http://ul.to/hl7bvw6w
    http://ul.to/41bnwbb0


    Full Match in RAR Archive

    Code:
    http://ryushare.com/2wpcgx7adn7q
    http://ryushare.com/qiryyur88ygm


    Full Match in RAR Archive

    Code:
    http://junocloud.me/g098qcwmd1ow
    http://junocloud.me/uawlqjn2qe12




    Quote Originally Posted by yosinocoupe View Post








    DUAL: Español/Ingles | TS | 1920x1080i - 10000 kbps - Alta Definicion/High Definition | 9.43 Gb




    http://www5.zippyshare.com/v/56733026/file.html
    http://www.ziddu.com/download/223706...3.torrent.html

    Prorroga (si hubiese)
     
    Si hubiese, siempre estaria incluida en el unico link


    Ripper - IlVarsh

    Nota: Podemos elegir entre dos idiomas, español o ingles








    Quote Originally Posted by sh4rky5 View Post
    Miami Heat vs San Antonio Spurs
    2013.06.13 - 9:00 PM ET

    Language: English
    Ripped by: sh4rky5

    Format: MKV
    Video: H264, 640x360, 800 kbps, 29.97 fps
    Audio: AAC, ~60 kbps, 44.1 KHz, 2 ch
    Size: [ 597 ] MB

    Zippyshare:
    Uploaded:
    Code:
    http://uploaded.net/file/ospcvq5p/NBA.2013.06.13.Heat.vs.Spurs.360p.x264-001.mkv
    http://uploaded.net/file/8yyi28v0/NBA.2013.06.13.Heat.vs.Spurs.360p.x264-002.mkv
    http://uploaded.net/file/ln6ojwsy/NBA.2013.06.13.Heat.vs.Spurs.360p.x264-003.mkv
    http://uploaded.net/file/lwwdz01s/NBA.2013.06.13.Heat.vs.Spurs.360p.x264-004.mkv
    In case of OT:
     

    It is included in the 4th video file. Or not


    Format: MKV
    Video: H264, 960x540, 1500 kbps, 29.97 fps
    Audio: AAC, ~80 kbps, 44.1 KHz, 2 ch
    Size: [ 1150 ] MB

    Zippyshare:
    Uploaded:
    Code:
    http://uploaded.net/file/yiz8o0az/NBA.2013.06.13.Heat.vs.Spurs.540p.x264-001.mkv
    http://uploaded.net/file/nr3oapz8/NBA.2013.06.13.Heat.vs.Spurs.540p.x264-002.mkv
    http://uploaded.net/file/c3akgy0n/NBA.2013.06.13.Heat.vs.Spurs.540p.x264-003.mkv
    http://uploaded.net/file/d52flzba/NBA.2013.06.13.Heat.vs.Spurs.540p.x264-004.mkv
    In case of OT:
     

    It is included in the 4th video file. Or not


    Format: MKV
    Video: H264, 1280x720, 3000 kbps, 29.97 fps
    Audio: AAC, ~130 kbps, 44.1 KHz, 2 ch
    Size: [ 2219 ] MB

    Zippyshare:
    Uploaded:
    Code:
    http://uploaded.net/file/85sixw7w/NBA.2013.06.13.Heat.vs.Spurs.720p.x264-001.mkv
    http://uploaded.net/file/j7fxnsyw/NBA.2013.06.13.Heat.vs.Spurs.720p.x264-002.mkv
    http://uploaded.net/file/4ke1362d/NBA.2013.06.13.Heat.vs.Spurs.720p.x264-003.mkv
    http://uploaded.net/file/i9vxrx1h/NBA.2013.06.13.Heat.vs.Spurs.720p.x264-004.mkv
    In case of OT:
     

    It is included in the 4th video file. Or not




    Quote Originally Posted by yosinocoupe View Post








    Ingles/English | MKV | 960x540 - Standar Definition | 1.12 Gb




    http://www19.zippyshare.com/v/64485697/file.html
    http://www.ziddu.com/download/223710...3.torrent.html

    Prorroga (si hubiese)
     
    Si hubiese, siempre estaria incluida en el unico link


    Ripper - Drax

    Nota: Este torrent contiene los Games 1, 2, 3 y 4. Si solo queremos descargar el Game 4, desmarcar los anteriores Games.








    RADIO:

    Quote Originally Posted by rubemar21 View Post




    MIAMI HEAT vs SAN ANTONIO SPURS
    NBA FINALS
    GAME 4
    Code:
    (13/06/2013) - ESPAÑOL (sólo audio) Narración: Abraham Rollán Comentarios: Manu Corraliza


    Code:
    (13/06/2013) - CATALÁN (sólo audio) Narración: Nino Vàzquez Comentarios: Josep Navarro
    Last edited by wigan88; 14th June 2013 at 21:50.

  2. The Following 61 Users Say Thank You to wigan88 For This Useful Post:

    2ay2aloot22 (14th June 2013), 33montilla (14th June 2013), alpaul0023 (15th June 2013), Alvaro1016 (14th June 2013), amk114 (14th June 2013), angelmonroy (14th June 2013), ArvydasSabonis (14th June 2013), auman23 (14th June 2013), bas8515 (14th June 2013), DaRKTHeoRY (14th June 2013), david25cm (14th June 2013), destrent (14th June 2013), djmlbp (14th June 2013), djnewmoneyuk (14th June 2013), Gaby24 (14th June 2013), gramenaguer67 (14th June 2013), JRFPTARRA (14th June 2013), juanitolocke (14th June 2013), JuankaRookie (14th June 2013), jurasros (18th June 2013), latredu (14th June 2013), looneytune (14th June 2013), MagicJohnson32 (14th June 2013), MarMi_bcn (14th June 2013), MarQu1s (15th June 2013), mcphineas (14th June 2013), mezcolanza (14th June 2013), Monegrino135 (14th June 2013), oM3GA-DeSTiNy (14th June 2013), PabloCaba96 (14th June 2013), pasvihe (14th June 2013), pipino143 (14th June 2013), prospettiva (14th June 2013), ralopano (14th June 2013), Sheriff Lorre (14th June 2013), skyskyblue (14th June 2013), solchante (14th June 2013), SonicNarcotic (14th June 2013), spidermanel (14th June 2013), stevenage (14th June 2013), texastexas (14th June 2013), theghostcavalier (14th June 2013), tophat (14th June 2013), tpa (14th June 2013), twofor (14th June 2013), utep (14th June 2013), valenciaocho (14th June 2013), vinceace15 (14th June 2013), vituko (14th June 2013), wemble (14th June 2013), westend (14th June 2013), williamwallace13 (14th June 2013), xenaphobia (14th June 2013), yanis99 (14th June 2013), yeovil (14th June 2013), yomarianob (14th June 2013), yoohoo (14th June 2013), yyakima (14th June 2013), zestyy (14th June 2013), zoozoo (14th June 2013), _SmauG_ (14th June 2013)

  3. #2
    Senior Member Profesional Sagopa Kajmer's Avatar
    Join Date
    Oct 2012
    Posts
    2,542
    Thanks
    1,633
    Thanked 4,780 Times in 1,874 Posts

    NBA Finals - Game 4 - 13/06/2013
    San Antonio Spurs v. Miami Heat
    _________________________________________________

    Broadcast : Canal+ HD Language : Spanish Source : DVBRIP
    Encoding : video 2000 Kbps h.264 mpeg-ts 25fps - audio mp3 128kbps Duration : 02:00:00
    Size : ~2,5GB Release Type : HD 720p Full Match

    _________________________________________________




    1st Quarter

    http://ul.to/ol9a0uz5

    2nd Quarter

    http://ul.to/ejgtds8j

    3rd Quarter

    http://ul.to/m0gy7x5x

    4th Quarter

    http://ul.to/4vckuce1

    or

    1st Half

    http://ul.to/ep0xebhx

    2nd Half

    http://ul.to/ak2c2zqt

    Overtime (if any!)

     
    no



    _________________________________________________

    Broadcast : Canal+ HD Language : Spanish Source : DVBRIP
    Encoding : video 1500 Kbps h.264 mkv 25fps - audio mp3 128kbps Duration : 02:00:00
    Size : ~1,5GB Release Type : SD 400p Full Match

    _________________________________________________




    1st Quarter

    http://ul.to/5abb9vm3

    2nd Quarter

    http://ul.to/fvfbvatf

    3rd Quarter

    http://ul.to/2qtmql31

    4th Quarter

    http://ul.to/f91b1q4e

    or

    1st Half

    http://ul.to/2asl0s9j

    2nd Half

    http://ul.to/7n4b7eyj

    Overtime (if any!)

     
    no



    _________________________________________________

    Broadcast : ESPN HD Language : English Source : DVBRIP
    Encoding : video 4000 Kbps h.264 mkv 60fps - audio AC3 384kbps Duration : 02:00:00
    Size : ~4,5GB Release Type : HD 720p Full Match

    _________________________________________________




    1st Half

    http://ul.to/ncgt3ngn

    2nd Half

    http://ul.to/bolaoorj

    Overtime (if any!)

     
    no



    _________________________________________________

    Broadcast : ESPN HD Language : English Source : DVBRIP
    Encoding : video 1500 Kbps h.264 mkv 60fps - audio mp3 128kbps Duration : 02:00:00
    Size : ~1,5GB Release Type : SD 400p Full Match

    _________________________________________________




    1st Half

    http://ul.to/j0eu9kvx

    2nd Half

    http://ul.to/z1j8eokx

    Overtime (if any!)

     
    no



    _________________________________________________

    Broadcast : ESPN HD Language : English Source : DVBRIP
    Encoding : video 3000 Kbps h.264 mkv 30fps - audio AC3 384kbps Duration : 02:00:00
    Size : ~3GB Release Type : HD 720p Full Match

    _________________________________________________




    1st Half

    http://ul.to/zlou3tef

    2nd Half

    http://ul.to/y2nov134

    Overtime (if any!)

     
    no



    _________________________________________________

    Broadcast : ESPN HD Language : English Source : DVBRIP
    Encoding : video 1500 Kbps h.264 mkv 30fps - audio mp3 128kbps Duration : 02:00:00
    Size : ~1,5GB Release Type : SD 400p Full Match

    _________________________________________________




    1st Half

    http://ul.to/kthfjby9

    2nd Half

    http://ul.to/n13w7u3u

    Overtime (if any!)

     
    no
    Last edited by Sagopa Kajmer; 14th June 2013 at 14:27.

  4. The Following 7 Users Say Thank You to Sagopa Kajmer For This Useful Post:

    angelmonroy (14th June 2013), CeLSuM (14th June 2013), GaLaTaMaN (14th June 2013), kubica04 (14th June 2013), prospettiva (14th June 2013), theghostcavalier (14th June 2013), vituko (14th June 2013)

  5. #3
    Senior Member Profesional sppcctv's Avatar
    Join Date
    Apr 2012
    Location
    Albacete, España
    Posts
    2,649
    Thanks
    50
    Thanked 3,259 Times in 1,314 Posts





    Mediainfo:
    Code:
    General
    Unique ID                                : 234993209495274075692505122174094252347 (0xB0CA0BBF6966C4F0A29D634CC83F993B)
    Complete name                            : N:\Torrents\NBaFnls G4 MIA - SAS Esp 720p 1st.mkv
    Format                                   : Matroska
    Format version                           : Version 4 / Version 2
    File size                                : 1.10 GiB
    Duration                                 : 1h 22mn
    Overall bit rate                         : 1 909 Kbps
    Encoded date                             : UTC 2013-06-14 02:36:47
    Writing application                      : mkvmerge v6.2.0 ('Promised Land') built on Apr 28 2013 12:22:01
    Writing library                          : libebml v1.3.0 + libmatroska v1.4.0
    
    Video
    ID                                       : 1
    Format                                   : AVC
    Format/Info                              : Advanced Video Codec
    Format profile                           : High@L3.2
    Format settings, CABAC                   : Yes
    Format settings, ReFrames                : 4 frames
    Codec ID                                 : V_MPEG4/ISO/AVC
    Duration                                 : 1h 22mn
    Bit rate                                 : 1 775 Kbps
    Nominal bit rate                         : 1 904 Kbps
    Width                                    : 1 280 pixels
    Height                                   : 720 pixels
    Display aspect ratio                     : 16:9
    Frame rate                               : 25.000 fps
    Color space                              : YUV
    Chroma subsampling                       : 4:2:0
    Bit depth                                : 8 bits
    Scan type                                : Progressive
    Bits/(Pixel*Frame)                       : 0.077
    Stream size                              : 1.02 GiB (93%)
    Title                                    : By SppccTeam
    Writing library                          : x264 core 115 r2013 6fce39a
    Encoding settings                        : cabac=1 / ref=3 / deblock=1:0:0 / analyse=0x3:0x13 / me=hex / subme=7 / psy=1 / psy_rd=1.00:0.00 / mixed_ref=1 / me_range=16 / chroma_me=1 / trellis=1 / 8x8dct=1 / cqm=0 / deadzone=21,11 / fast_pskip=1 / chroma_qp_offset=-2 / threads=12 / sliced_threads=0 / nr=0 / decimate=1 / interlaced=0 / bluray_compat=0 / constrained_intra=0 / bframes=3 / b_pyramid=2 / b_adapt=1 / b_bias=0 / direct=1 / weightb=1 / open_gop=0 / weightp=2 / keyint=250 / keyint_min=25 / scenecut=40 / intra_refresh=0 / rc_lookahead=40 / rc=cbr / mbtree=1 / bitrate=1904 / ratetol=1.0 / qcomp=0.60 / qpmin=10 / qpmax=51 / qpstep=4 / vbv_maxrate=1904 / vbv_bufsize=19040 / nal_hrd=none / ip_ratio=1.40 / aq=1:1.00
    Language                                 : Spanish
    Default                                  : Yes
    Forced                                   : No
    
    Audio
    ID                                       : 2
    Format                                   : MPEG Audio
    Format version                           : Version 1
    Format profile                           : Layer 3
    Mode                                     : Joint stereo
    Mode extension                           : MS Stereo
    Codec ID                                 : A_MPEG/L3
    Codec ID/Hint                            : MP3
    Duration                                 : 1h 22mn
    Bit rate mode                            : Constant
    Bit rate                                 : 96.0 Kbps
    Channel(s)                               : 2 channels
    Sampling rate                            : 44.1 KHz
    Compression mode                         : Lossy
    Delay relative to video                  : -90ms
    Stream size                              : 56.5 MiB (5%)
    Title                                    : Canal+ Deportes HD
    Language                                 : Spanish
    Default                                  : Yes
    Forced                                   : No

    Descarga:

    720p:


    Primera Parte: (Q1 & Q2)
    Uploaded: http://ul.to/8l5hnz3c
    Depositfiles: http://dfiles.eu/files/q2vtno6zw

    Segunda Parte: (Q3 & Q4)
    Uploaded: http://ul.to/wp0rimqm
    Depositfiles: http://dfiles.eu/files/m5dga0zx8

    Link Unico:
    Uploaded: http://ul.to/r85hy9ae
    Depositfiles: http://dfiles.eu/files/g69ks2xtx

    Links de 1Gb:
    Uploaded:
    1. http://ul.to/ulfoadku
    2. http://ul.to/rhswti1s
    3. http://ul.to/0xf7wld0

    Depositfiles:
    1. http://dfiles.eu/files/ps72lwwjl
    2. http://dfiles.eu/files/ntgqazoeu
    3. http://dfiles.eu/files/cg7vcvorc

    TORRENT:
    Archivo.rar Con Imagenes de Muestra y el Torrent del Game 3
    Uploaded: http://ul.to/126fksfy
    Depositfiles: http://dfiles.eu/files/5k6l8soju


    400p

    Primera Parte: (Q1 & Q2)
    Uploaded: http://ul.to/126fksfy
    Depositfiles: http://dfiles.eu/files/qebxs8w3o

    Segunda Parte: (Q3 & Q4)
    Uploaded: http://ul.to/2rhvhcqu
    Depositfiles: http://dfiles.eu/files/lv7e5h67f

    Link Unico:
    Uploaded: http://ul.to/tneqs5i2
    [COLOR="#FF0000"]Depositfiles:[/COLOR http://dfiles.eu/files/24q99juil

    Links de 1Gb:
    Uploaded:
    1. http://ul.to/q6zx0aak
    2. http://ul.to/al8p1svq

    Depositfiles:
    1. http://dfiles.eu/files/jkdjp54zw
    2. http://dfiles.eu/files/sqppdaote

    TORRENT:
    Archivo.rar Con Imagenes de Muestra y el Torrent del Game 3
    Uploaded: http://ul.to/qwhnis0g
    Depositfiles: http://dfiles.eu/files/h9mftyrs9

    Last edited by sppcctv; 14th June 2013 at 06:28.
    If You're SCOUT contact me on Private.
    Si eres SCOUT Contacta conmigo en Privado

    Si en alguno de mis Post se caen las Imagenes o los archivos, comunicalo por MP

    Register Free Or Buy A Premium Account On Uploaded HERE
    Registrate Gratis O Compra una Cuenta Premium de UploadedAQUI

  6. The Following 23 Users Say Thank You to sppcctv For This Useful Post:

    agapitoveteya (14th June 2013), angelmonroy (14th June 2013), AORTONI (14th June 2013), asistencia (14th June 2013), Brees (14th June 2013), crucro (14th June 2013), el_edu1 (14th June 2013), gabber_bcn (14th June 2013), isans (14th June 2013), Javivi79 (14th June 2013), Jonvader (14th June 2013), karim-benzema (14th June 2013), laisen (14th June 2013), Maragator (14th June 2013), Migueeelsp (14th June 2013), Pagmun (14th June 2013), prospettiva (14th June 2013), spidermanel (14th June 2013), theghostcavalier (14th June 2013), Vinilocura (14th June 2013), vituko (14th June 2013), wasomen (14th June 2013), Yuhuuuu (14th June 2013)

  7. #4
    Senior Member Crack kclayman's Avatar
    Join Date
    Oct 2010
    Posts
    9,157
    Thanks
    769
    Thanked 12,883 Times in 5,290 Posts

    Wink NBA 2013 Finals - Game 4: Miami Heat @ San Antonio Spurs (2013.06.13)

    NBA 2013 Finals - Game 4
    Miami Heat vs San Antonio Spurs


    2013.06.13 - 21:00 ET








    Code:
    Language............: English
    Ripper..............: Reborn4HD
    Size................: 4.63 GB
    Format..............: mkv
    Resolution..........: 1280x720
    Video...............: H.264, 4500 Kbps @ 59.94 fps
    Audio...............: AAC, 128 Kbps, 44.1 KHz, 2 channels
    Release Note........: Unnecessary Footage Between Quarters Removed.




    Code:
    http://uploaded.net/file/5kdk1u1x/NBA.2013.Finals.G4.Heat.vs.Spurs.720p.ilprip.60fps.x264-Reborn4HD.mkv
    
    or
    
    http://rapidstation.com/3v6h1k3cw8w2/NBA.2013.Finals.G4.Heat.vs.Spurs.720p.ilprip.60fps.x264-Reborn4HD.mkv.html



    Code:
    http://uploaded.net/file/l0lxw9ho/NBA.2013.Finals.G4.Heat.vs.Spurs.720p.ilprip.60fps.x264-Reborn4HD-1.mkv
    http://uploaded.net/file/fa5s7gaz/NBA.2013.Finals.G4.Heat.vs.Spurs.720p.ilprip.60fps.x264-Reborn4HD-2.mkv
    http://uploaded.net/file/ai9eufqc/NBA.2013.Finals.G4.Heat.vs.Spurs.720p.ilprip.60fps.x264-Reborn4HD-3.mkv
    http://uploaded.net/file/c2eh4kag/NBA.2013.Finals.G4.Heat.vs.Spurs.720p.ilprip.60fps.x264-Reborn4HD-4.mkv
    
    or
    
    http://rapidstation.com/pqelqikge4dg/NBA.2013.Finals.G4.Heat.vs.Spurs.720p.ilprip.60fps.x264-Reborn4HD-1.mkv.html
    http://rapidstation.com/szi9lpc3cw2n/NBA.2013.Finals.G4.Heat.vs.Spurs.720p.ilprip.60fps.x264-Reborn4HD-2.mkv.html
    http://rapidstation.com/t3deteclpbnp/NBA.2013.Finals.G4.Heat.vs.Spurs.720p.ilprip.60fps.x264-Reborn4HD-3.mkv.html
    http://rapidstation.com/fgx3qc8821vw/NBA.2013.Finals.G4.Heat.vs.Spurs.720p.ilprip.60fps.x264-Reborn4HD-4.mkv.html
    Extra time if any
     

    if there is any, it is included in 4th quarter.




    Enjoy and a simple thanks to me would be great!

    Last edited by kclayman; 14th June 2013 at 05:25.

    Check out the New NBA Pastebin Service

    See you Next Season for NBA/NFL/EPL/UEFA-CL (English)

  8. The Following 5 Users Say Thank You to kclayman For This Useful Post:

    bt67s (14th June 2013), javivivati (14th June 2013), prospettiva (14th June 2013), theghostcavalier (14th June 2013), vituko (14th June 2013)

  9. #5
    Senior Member Crack kclayman's Avatar
    Join Date
    Oct 2010
    Posts
    9,157
    Thanks
    769
    Thanked 12,883 Times in 5,290 Posts
    NBA 2013 Finals - Game 4
    Miami Heat vs San Antonio Spurs


    2013.06.13 - 21:00 ET








    Code:
    Language............: English
    Ripper..............: Reborn4HD
    Size................: 2.95 GB
    Format..............: mkv
    Resolution..........: 1280x720
    Video...............: H.264, 3000 Kbps @ 29.97 fps
    Audio...............: AAC, 128 Kbps, 44.1 KHz, 2 channels
    Release Note........: Unnecessary Footage Between Quarters Removed.




    Code:
    http://uploaded.net/file/422jnz3b/NBA.2013.Finals.G4.Heat.vs.Spurs.720p.ilprip.30fps.x264-Reborn4HD.mkv
    
    or
    
    http://rapidstation.com/a28r8y568sbn/NBA.2013.Finals.G4.Heat.vs.Spurs.720p.ilprip.30fps.x264-Reborn4HD.mkv.html



    Code:
    http://uploaded.net/file/0tuahuus/NBA.2013.Finals.G4.Heat.vs.Spurs.720p.ilprip.30fps.x264-Reborn4HD-1.mkv
    http://uploaded.net/file/agjj8xsu/NBA.2013.Finals.G4.Heat.vs.Spurs.720p.ilprip.30fps.x264-Reborn4HD-2.mkv
    http://uploaded.net/file/3ocyl54q/NBA.2013.Finals.G4.Heat.vs.Spurs.720p.ilprip.30fps.x264-Reborn4HD-3.mkv
    http://uploaded.net/file/wjv8nzre/NBA.2013.Finals.G4.Heat.vs.Spurs.720p.ilprip.30fps.x264-Reborn4HD-4.mkv
    
    or
    
    http://rapidstation.com/l5m5xpe913l1/NBA.2013.Finals.G4.Heat.vs.Spurs.720p.ilprip.30fps.x264-Reborn4HD-1.mkv.html
    http://rapidstation.com/1fzcqgs5kr2b/NBA.2013.Finals.G4.Heat.vs.Spurs.720p.ilprip.30fps.x264-Reborn4HD-2.mkv.html
    http://rapidstation.com/9o7uzs8s7dqu/NBA.2013.Finals.G4.Heat.vs.Spurs.720p.ilprip.30fps.x264-Reborn4HD-3.mkv.html
    http://rapidstation.com/61vcw2ptrtfx/NBA.2013.Finals.G4.Heat.vs.Spurs.720p.ilprip.30fps.x264-Reborn4HD-4.mkv.html
    Extra time if any
     

    if there is any, it is included in 4th quarter.




    Enjoy and a simple thanks to me would be great!

    Last edited by kclayman; 14th June 2013 at 05:34.

    Check out the New NBA Pastebin Service

    See you Next Season for NBA/NFL/EPL/UEFA-CL (English)

  10. The Following 3 Users Say Thank You to kclayman For This Useful Post:

    jurasros (18th June 2013), prospettiva (14th June 2013), theghostcavalier (14th June 2013)

  11. #6
    Senior Member Balón de oro
    Join Date
    Mar 2010
    Posts
    10,025
    Thanks
    75
    Thanked 9,926 Times in 4,000 Posts
    NBA Finals 2013, Game #4: Miami Heat vs. San Antonio Spurs 13-06-2013







    Format : mpeg
    File size : 2.10 GiB
    Source:CANAL+ HD
    Resolution:1280 X 720
    Language:Spanish

    Last edited by lizhengxiang; 14th June 2013 at 05:17.

  12. The Following 7 Users Say Thank You to lizhengxiang For This Useful Post:

    angelmonroy (14th June 2013), AORTONI (14th June 2013), arcelorin (22nd July 2013), asistencia (14th June 2013), prospettiva (14th June 2013), theghostcavalier (14th June 2013), vituko (14th June 2013)

  13. #7
    Senior Member Balón de oro
    Join Date
    Mar 2010
    Posts
    10,025
    Thanks
    75
    Thanked 9,926 Times in 4,000 Posts
    NBA Finals 2013, Game #4: Miami Heat vs. San Antonio Spurs 13-06-2013





    Format : mpeg
    File size : 2.13 GiB
    Source:ESPN HD
    Resolution:1280 X 720
    Language:English

    Last edited by lizhengxiang; 14th June 2013 at 06:49.

  14. The Following 3 Users Say Thank You to lizhengxiang For This Useful Post:

    prospettiva (14th June 2013), susonm (14th June 2013), theghostcavalier (14th June 2013)

  15. #8
    Senior Member Amateur
    Join Date
    Jan 2011
    Posts
    149
    Thanks
    27
    Thanked 44 Times in 24 Posts
    thanks for the great share

  16. #9
    Senior Member Balón de oro
    Join Date
    Mar 2010
    Posts
    10,025
    Thanks
    75
    Thanked 9,926 Times in 4,000 Posts
    post #6 done,enjoy!

  17. #10
    Senior Member Crack kclayman's Avatar
    Join Date
    Oct 2010
    Posts
    9,157
    Thanks
    769
    Thanked 12,883 Times in 5,290 Posts
    post #4 #5 done

    Check out the New NBA Pastebin Service

    See you Next Season for NBA/NFL/EPL/UEFA-CL (English)

  18. The Following User Says Thank You to kclayman For This Useful Post:

    JuankaRookie (14th June 2013)

Posting Permissions

  • You may not post new threads
  • You may not post replies
  • You may not post attachments
  • You may not edit your posts
  •