Page 1 of 4 123 ... LastLast
Results 1 to 10 of 32

Thread: NBA Finals 2013, Game #5: Miami Heat vs. San Antonio Spurs 16-06-2013

Share |
  1. #1
    Senior Member Crack wigan88's Avatar
    Join Date
    May 2011
    Location
    Philadelphia, Pa., USA
    Posts
    9,548
    Thanks
    47
    Thanked 62,773 Times in 7,338 Posts

    NBA Finals 2013, Game #5: Miami Heat vs. San Antonio Spurs 16-06-2013

    SPANISH:

    NBA Finals 2013, Game #5: Miami Heat vs. San Antonio Spurs [1000 kbps], 6-13-2013, courtesy of ESPN Latin America. Links below:

    ***** I apologize for all the Parts with the Spanish Cap. The Streamer was dealing with the Copyright Infringement hawks, and the Stream keep going down, and each time I had to keep refreshing until the Stream came back online.











    Commentary: Spanish
    File Format: FLV
    Resolution: 512 X 288
    Total Size: 628 MB

    1st Quarter:

    http://adf.ly/Qdaag

    2nd Quarter:

    http://adf.ly/QdfyU

    http://adf.ly/Qdg1s

    3rd Quarter:

    http://adf.ly/Qdj3m

    http://adf.ly/Qdm74

    4th Quarter:

    http://adf.ly/QdqNR

    http://adf.ly/QdqR4

    Overtime, if necessary:
     

    ---------------


    Enjoy Everyone!!!

    Wigan

    Quote Originally Posted by sppcctv View Post





    Mediainfo:

    Code:
    General
    Unique ID                                : 234806479722289026231271911019749485672 (0xB0A6154253E71BB88732BB49372AAC68)
    Complete name                            : N:\Torrents\NBaFnls G5 MIA - SAS Esp 1st 720p.mkv
    Format                                   : Matroska
    Format version                           : Version 4 / Version 2
    File size                                : 1.11 GiB
    Duration                                 : 1h 23mn
    Overall bit rate                         : 1 888 Kbps
    Encoded date                             : UTC 2013-06-17 02:05:05
    Writing application                      : mkvmerge v6.2.0 ('Promised Land') built on Apr 28 2013 12:22:01
    Writing library                          : libebml v1.3.0 + libmatroska v1.4.0
    
    Video
    ID                                       : 1
    Format                                   : AVC
    Format/Info                              : Advanced Video Codec
    Format profile                           : High@L3.2
    Format settings, CABAC                   : Yes
    Format settings, ReFrames                : 4 frames
    Codec ID                                 : V_MPEG4/ISO/AVC
    Duration                                 : 1h 23mn
    Bit rate                                 : 1 755 Kbps
    Nominal bit rate                         : 1 904 Kbps
    Width                                    : 1 280 pixels
    Height                                   : 720 pixels
    Display aspect ratio                     : 16:9
    Frame rate                               : 25.000 fps
    Color space                              : YUV
    Chroma subsampling                       : 4:2:0
    Bit depth                                : 8 bits
    Scan type                                : Progressive
    Bits/(Pixel*Frame)                       : 0.076
    Stream size                              : 1.03 GiB (93%)
    Title                                    : By SpccTeam
    Writing library                          : x264 core 115 r2013 6fce39a
    Encoding settings                        : cabac=1 / ref=3 / deblock=1:0:0 / analyse=0x3:0x13 / me=hex / subme=7 / psy=1 / psy_rd=1.00:0.00 / mixed_ref=1 / me_range=16 / chroma_me=1 / trellis=1 / 8x8dct=1 / cqm=0 / deadzone=21,11 / fast_pskip=1 / chroma_qp_offset=-2 / threads=12 / sliced_threads=0 / nr=0 / decimate=1 / interlaced=0 / bluray_compat=0 / constrained_intra=0 / bframes=3 / b_pyramid=2 / b_adapt=1 / b_bias=0 / direct=1 / weightb=1 / open_gop=0 / weightp=2 / keyint=250 / keyint_min=25 / scenecut=40 / intra_refresh=0 / rc_lookahead=40 / rc=cbr / mbtree=1 / bitrate=1904 / ratetol=1.0 / qcomp=0.60 / qpmin=10 / qpmax=51 / qpstep=4 / vbv_maxrate=1904 / vbv_bufsize=19040 / nal_hrd=none / ip_ratio=1.40 / aq=1:1.00
    Language                                 : English
    Default                                  : Yes
    Forced                                   : No
    
    Audio
    ID                                       : 2
    Format                                   : MPEG Audio
    Format version                           : Version 1
    Format profile                           : Layer 3
    Mode                                     : Joint stereo
    Mode extension                           : MS Stereo
    Codec ID                                 : A_MPEG/L3
    Codec ID/Hint                            : MP3
    Duration                                 : 1h 23mn
    Bit rate mode                            : Constant
    Bit rate                                 : 96.0 Kbps
    Channel(s)                               : 2 channels
    Sampling rate                            : 44.1 KHz
    Compression mode                         : Lossy
    Delay relative to video                  : 14ms
    Stream size                              : 57.5 MiB (5%)
    Title                                    : Canal+ Deportes HD
    Language                                 : Spanish
    Default                                  : Yes
    Forced                                   : No
    Descarga:

    720p

    Primera Parte: (Q1 & Q2)
    Uploaded: http://ul.to/rm4q2s9q
    Depositfiles: http://dfiles.eu/files/royn8pia1

    Segunda Parte: (Q3 & Q4)
    Uploaded: http://ul.to/cb65xfrp
    Depositfiles: http://dfiles.eu/files/m2zv9bmu8

    Link Unico
    Uploaded: http://ul.to/1j8b0s3i
    Depositfiles: http://dfiles.eu/files/haeq5v885

    Links en Partes de 1Gb
    Uploaded:
    1. http://ul.to/c83xdg42
    2. http://ul.to/f0uywnsv
    3. http://ul.to/ov8609mz

    Depositfiles:
    1. http://dfiles.eu/files/i6abpvyco
    2. http://dfiles.eu/files/9zk95uj9a
    3. http://dfiles.eu/files/cnw1y2zh0

    TORRENT:
    Archivo.rar Con Imagenes de Muestra y el Torrent del Game 5
    Uploaded: http://ul.to/jrjnt5es
    Depositfiles: http://dfiles.eu/files/8vrps4uwt

    400p

    Primera Parte: (Q1 & Q2)
    Uploaded: http://ul.to/78p8hn0s
    Depositfiles: http://dfiles.eu/files/3neandzj9

    Segunda Parte: (Q3 & Q4)
    Uploaded: http://ul.to/j253iiab
    Depositfiles: http://dfiles.eu/files/3kbjc27q4

    Link Unico
    Uploaded: http://ul.to/8hshj0rk
    Depositfiles: http://dfiles.eu/files/rh6ip5kj1

    Links en Partes de 1Gb
    Uploaded:
    1. http://ul.to/l8icehke
    2. http://ul.to/6397cxe9

    Depositfiles:
    1. http://dfiles.eu/files/so1rz5fjc
    2. http://dfiles.eu/files/an7r0kmpc

    TORRENT:
    Archivo.rar Con Imagenes de Muestra y el Torrent del Game 5
    Uploaded: http://ul.to/6e42ktan
    Depositfiles: http://dfiles.eu/files/0idgrf0ps

    Quote Originally Posted by lizhengxiang View Post
    NBA Finals 2013, Game #5: Miami Heat vs. San Antonio Spurs 16-06-2013





    Format : mpeg
    File size : 2.53 GiB
    Source:CANAL+ HD
    Resolution:1280 X 720
    Language:Spanish

    Quote Originally Posted by sppcctv View Post





    Mediainfo:
    Code:
    General
    Unique ID                                : 238307777876319045497730772670115782340 (0xB3486896070C71D58D16CECF00149EC4)
    Complete name                            : N:\Torrents\NBA 2013 Finals - San Antonio Spurs - Miami Heat [SPPCTEAM]\NBaFnls G5 MIA - SAS Esp 400p.mkv
    Format                                   : Matroska
    Format version                           : Version 4 / Version 2
    File size                                : 1.55 GiB
    Duration                                 : 2h 47mn
    Overall bit rate                         : 1 327 Kbps
    Encoded date                             : UTC 2013-06-17 03:25:08
    Writing application                      : mkvmerge v6.2.0 ('Promised Land') built on Apr 28 2013 12:22:01
    Writing library                          : libebml v1.3.0 + libmatroska v1.4.0
    
    Video
    ID                                       : 1
    Format                                   : AVC
    Format/Info                              : Advanced Video Codec
    Format profile                           : Main@L3.0
    Format settings, CABAC                   : Yes
    Format settings, ReFrames                : 4 frames
    Codec ID                                 : V_MPEG4/ISO/AVC
    Duration                                 : 2h 47mn
    Nominal bit rate                         : 1 200 Kbps
    Width                                    : 720 pixels
    Height                                   : 400 pixels
    Display aspect ratio                     : 16:9
    Frame rate                               : 25.000 fps
    Color space                              : YUV
    Chroma subsampling                       : 4:2:0
    Bit depth                                : 8 bits
    Scan type                                : Progressive
    Bits/(Pixel*Frame)                       : 0.167
    Title                                    : By SppccTeam
    Writing library                          : x264 core 120
    Encoding settings                        : cabac=1 / ref=1 / deblock=1:0:0 / analyse=0x1:0x111 / me=hex / subme=2 / psy=1 / psy_rd=1.00:0.00 / mixed_ref=0 / me_range=16 / chroma_me=1 / trellis=0 / 8x8dct=0 / cqm=0 / deadzone=21,11 / fast_pskip=1 / chroma_qp_offset=0 / threads=12 / sliced_threads=0 / nr=0 / decimate=1 / interlaced=0 / bluray_compat=0 / constrained_intra=0 / bframes=3 / b_pyramid=2 / b_adapt=1 / b_bias=0 / direct=1 / weightb=1 / open_gop=0 / weightp=1 / keyint=250 / keyint_min=25 / scenecut=40 / intra_refresh=0 / rc_lookahead=10 / rc=abr / mbtree=1 / bitrate=1200 / ratetol=1.0 / qcomp=0.60 / qpmin=3 / qpmax=69 / qpstep=4 / ip_ratio=1.40 / aq=1:1.00
    Language                                 : English
    Default                                  : Yes
    Forced                                   : No
    Color primaries                          : BT.709-5, BT.1361, IEC 61966-2-4, SMPTE RP177
    Transfer characteristics                 : BT.709-5, BT.1361
    Matrix coefficients                      : BT.709-5, BT.1361, IEC 61966-2-4 709, SMPTE RP177
    
    Audio
    ID                                       : 2
    Format                                   : AAC
    Format/Info                              : Advanced Audio Codec
    Format profile                           : LC
    Codec ID                                 : A_AAC
    Duration                                 : 2h 47mn
    Channel(s)                               : 2 channels
    Channel positions                        : Front: L R
    Sampling rate                            : 44.1 KHz
    Compression mode                         : Lossy
    Title                                    : Canal+ Deportes HD
    Language                                 : Spanish
    Default                                  : Yes
    Forced                                   : No

    Descarga Torrent:
    Archivo.rar con Imagenes de Muestra y el Torrent con los 5 Games disputados.
    (Si se desea bajar uno o varios, desmarcar las casillas de los que no se quieran descargar)

    Uploaded: http://ul.to/nthuoewe
    Depositfiles: http://dfiles.eu/files/e30858tv6

    Quote Originally Posted by mokotronk View Post






    By: mokotronk
    Idioma: Español
    Formato: MKV
    Resolución: 512x288
    Tamaño: 877 Mb



    1er Cuarto
    http://www.putlocker.com/file/E88AAD85AE74CBA8

    2º Cuarto
    http://www.putlocker.com/file/21CB4ACD352A6E4A

    3er Cuarto
    http://www.putlocker.com/file/89519C66DA82A08F

    4º Cuarto
    http://www.putlocker.com/file/A1DC72DF2A0FE6AC

    Tiempo Extra
     
    Si hubiese estará siempre añadido a la 2ª parte o al 4º cuarto

    Quote Originally Posted by Sagopa Kajmer View Post

    NBA Finals - Game 5 - 16/06/2013
    San Antonio Spurs v. Miami Heat
    _________________________________________________

    Broadcast : Canal+ HD Language : Spanish Source : DVBRIP
    Encoding : video 2000 Kbps h.264 mpeg-ts 25fps - audio mp3 128kbps Duration : 02:00:00
    Size : ~2,5GB Release Type : HD 720p Full Match

    _________________________________________________




    1st Quarter

    http://ul.to/wmb4ifgf

    2nd Quarter

    http://ul.to/j7kjfmk0

    3rd Quarter

    http://ul.to/bis430yu

    4th Quarter

    http://ul.to/ki385jj2

    Overtime (if any!)

     
    no



    _________________________________________________

    Broadcast : Canal+ HD Language : Spanish Source : DVBRIP
    Encoding : video 1500 Kbps h.264 mkv 25fps - audio mp3 128kbps Duration : 02:00:00
    Size : ~1,5GB Release Type : SD 400p Full Match

    _________________________________________________




    1st Quarter

    http://ul.to/mlav8gzj

    2nd Quarter

    http://ul.to/hp2ofztl

    3rd Quarter

    http://ul.to/42o6ul05

    4th Quarter

    http://ul.to/nscdraq6

    Overtime (if any!)

     
    no



    _________________________________________________

    Broadcast : ESPN HD Language : English Source : DVBRIP
    Encoding : video 4000 Kbps h.264 mkv 60fps - audio AC3 384kbps Duration : 02:00:00
    Size : ~4,5GB Release Type : HD 720p Full Match

    _________________________________________________



    1st Half

    http://ul.to/u8qsge7t

    2nd Half

    http://ul.to/biy5xyrq

    Overtime (if any!)

     
    no



    _________________________________________________

    Broadcast : ESPN HD Language : English Source : DVBRIP
    Encoding : video 1500 Kbps h.264 mkv 60fps - audio mp3 128kbps Duration : 02:00:00
    Size : ~1,5GB Release Type : SD 400p Full Match

    _________________________________________________



    1st Half

    http://ul.to/g3cjs3m1

    2nd Half

    http://ul.to/8ytslybu

    Overtime (if any!)

     
    no



    _________________________________________________

    Broadcast : ESPN HD Language : English Source : DVBRIP
    Encoding : video 3000 Kbps h.264 mkv 30fps - audio AC3 384kbps Duration : 02:00:00
    Size : ~3GB Release Type : HD 720p Full Match

    _________________________________________________



    1st Half

    http://ul.to/z1r3pqjk

    2nd Half

    http://ul.to/ud61lkt9

    Overtime (if any!)

     
    no



    _________________________________________________

    Broadcast : ESPN HD Language : English Source : DVBRIP
    Encoding : video 1500 Kbps h.264 mkv 30fps - audio mp3 128kbps Duration : 02:00:00
    Size : ~1,5GB Release Type : SD 400p Full Match

    _________________________________________________



    1st Half

    http://ul.to/9xlz722x

    2nd Half

    http://ul.to/gum0sojt

    Overtime (if any!)

     
    no

    ENGLISH:

    NBA Finals 2013, Game #5: Miami Heat vs. San Antonio Spurs [2100 kbps], 6-16-2013, courtesy of Sky Sports 2 HD. Links below:











    Commentary: English
    File Format: FLV
    Resolution: 1280 X 720
    Total Size: 2256 MB

    1st Quarter:

    http://adf.ly/Qdc3R

    2nd Quarter:

    http://adf.ly/Qdg5v

    http://adf.ly/Qdg8w

    3rd Quarter:

    http://adf.ly/QdmHz

    4th Quarter:

    http://adf.ly/QdrAq

    Overtime, if necessary:
     

    ---------------


    Enjoy Everyone!!!

    Wigan





    Quote Originally Posted by kclayman View Post
    NBA 2013 Finals - Game 5
    Miami Heat vs San Antonio Spurs


    2013.06.16 - 20:00 ET






    Code:
    Language............: English
    Ripper..............: Reborn4HD
    Size................: 4.94 GB
    Format..............: mkv
    Resolution..........: 1280x720
    Video...............: H.264, 4500 Kbps @ 59.94 fps
    Audio...............: AAC, 128 Kbps, 44.1 KHz, 2 channels
    Release Note........: Player Introduction Included, Unnecessary Footage Between Quarters Removed.




    Code:
    http://uploaded.net/file/7b8znim9/NBA.2013.Finals.G5.Heat.vs.Spurs.720p.ilprip.60fps.x264-Reborn4HD.mkv
     
    or
     
    http://rapidstation.com/0730xu5zumdz/NBA.2013.Finals.G5.Heat.vs.Spurs.720p.ilprip.60fps.x264-Reborn4HD.mkv.html



    Code:
    http://uploaded.net/file/a32fh1fh/NBA.2013.Finals.G5.Heat.vs.Spurs.720p.ilprip.60fps.x264-Reborn4HD-1.mkv
    http://uploaded.net/file/171wzlqn/NBA.2013.Finals.G5.Heat.vs.Spurs.720p.ilprip.60fps.x264-Reborn4HD-2.mkv
    http://uploaded.net/file/m8vwdn4p/NBA.2013.Finals.G5.Heat.vs.Spurs.720p.ilprip.60fps.x264-Reborn4HD-3.mkv
    http://uploaded.net/file/odi590az/NBA.2013.Finals.G5.Heat.vs.Spurs.720p.ilprip.60fps.x264-Reborn4HD-4.mkv
     
    or
     
    http://rapidstation.com/jleganeoapr8/NBA.2013.Finals.G5.Heat.vs.Spurs.720p.ilprip.60fps.x264-Reborn4HD-1.mkv.html
    http://rapidstation.com/vt029m60gyjw/NBA.2013.Finals.G5.Heat.vs.Spurs.720p.ilprip.60fps.x264-Reborn4HD-2.mkv.html
    http://rapidstation.com/w91xfuqrioox/NBA.2013.Finals.G5.Heat.vs.Spurs.720p.ilprip.60fps.x264-Reborn4HD-3.mkv.html
    http://rapidstation.com/kigepvaqi9vx/NBA.2013.Finals.G5.Heat.vs.Spurs.720p.ilprip.60fps.x264-Reborn4HD-4.mkv.html
    Extra time if any
     

    if there is any, it is included in 4th quarter.




    Enjoy and a simple thanks to me would be great!





    Quote Originally Posted by kclayman View Post
    NBA 2013 Finals - Game 5
    Miami Heat vs San Antonio Spurs


    2013.06.16 - 20:00 ET






    Code:
    Language............: English
    Ripper..............: Reborn4HD
    Size................: 2.39 GB
    Format..............: mp4 + mkv
    Resolution..........: 1280x720
    Video...............: H.264, 3000 Kbps @ 29.97 fps
    Audio...............: AAC, 128 Kbps, 44.1 KHz, 2 channels




    Code:
    http://uploaded.net/file/1mcou4lf/NBA.2013.Finals.G5.Heat.vs.Spurs.720p.ilprip.30fps.x264-Reborn4HD.mp4
     
    or
     
    http://rapidstation.com/ndja1xkxb154/NBA.2013.Finals.G5.Heat.vs.Spurs.720p.ilprip.30fps.x264-Reborn4HD.mp4.html



    Code:
    http://uploaded.net/file/mqws22by/NBA.2013.Finals.G5.Heat.vs.Spurs.720p.ilprip.30fps.x264-Reborn4HD-1.mkv
    http://uploaded.net/file/gswxstvx/NBA.2013.Finals.G5.Heat.vs.Spurs.720p.ilprip.30fps.x264-Reborn4HD-2.mkv
    http://uploaded.net/file/7utjz094/NBA.2013.Finals.G5.Heat.vs.Spurs.720p.ilprip.30fps.x264-Reborn4HD-3.mkv
    http://uploaded.net/file/4twmyh2d/NBA.2013.Finals.G5.Heat.vs.Spurs.720p.ilprip.30fps.x264-Reborn4HD-4.mkv
     
    or
     
    http://rapidstation.com/p9ag7lkuhdrh/NBA.2013.Finals.G5.Heat.vs.Spurs.720p.ilprip.30fps.x264-Reborn4HD-1.mkv.html
    http://rapidstation.com/brtqp2ip21pb/NBA.2013.Finals.G5.Heat.vs.Spurs.720p.ilprip.30fps.x264-Reborn4HD-2.mkv.html
    http://rapidstation.com/e146ylc0gop3/NBA.2013.Finals.G5.Heat.vs.Spurs.720p.ilprip.30fps.x264-Reborn4HD-3.mkv.html
    http://rapidstation.com/zbg430pldwmb/NBA.2013.Finals.G5.Heat.vs.Spurs.720p.ilprip.30fps.x264-Reborn4HD-4.mkv.html
    Extra time if any
     

    if there is any, it is included in 4th quarter.




    Enjoy and a simple thanks to me would be great!





    Quote Originally Posted by yosinocoupe View Post








    Ingles/English | MKV | 1280x720 - 60 frames por segundo - Alta Definicion/High Definition | 4.28 Gb




    http://www56.zippyshare.com/v/96105880/file.html
    http://www.ziddu.com/download/223871...3.torrent.html

    Prorroga (si hubiese)
     
    Si hubiese, siempre estaria incluida en el unico link


    Ripper - m4rtyr

    Nota: Este torrent contiene los Games 1, 2, 3, 4 y 5. Si solo queremos descargar el Game 5, desmarcar los anteriores Games.







    Quote Originally Posted by yosinocoupe View Post








    Ingles/English | Avi | 1280x720 - Alta Definicion/High Definition | 2.66 Gb




    http://www10.zippyshare.com/v/9886541/file.html
    http://www.ziddu.com/download/223871...3.torrent.html

    Prorroga (si hubiese)
     
    Si hubiese, siempre estaria incluida en el unico link


    Ripper - waha

    Nota: Este torrent solo contiene el Game 5







    Quote Originally Posted by GreenGT View Post


    English
    Ripper - GreenGT
    Video: MPEG4 Video (H264) | 640x360 | 29.97 fps | 800kbps
    Audio: AAC | 44100Hz | stereo | 64kbps
    Size - 665 Mb



    Full Match in MP4 file:

    Code:
    http://ul.to/h0zs54c3


    Full Match in MP4 file:

    Code:
    http://junocloud.me/5fhjwyttcsrg




    Quote Originally Posted by GreenGT View Post


    English
    Ripper - GreenGT
    Video: MPEG4 Video (H264) | 960x540 | 29.97 fps | 1500kbps
    Audio: AAC | 44100Hz | stereo | 64kbps
    Size - 1.25 Gb



    Full Match in MP4 file:

    Code:
    http://ul.to/jem7hyo9
    Full Match in RAR Archive

    Code:
    http://ul.to/3fkx98ch
    http://ul.to/ksxifry6


    Full Match in RAR Archive

    Code:
    http://junocloud.me/8xvmuc72t95m
    http://junocloud.me/15ol9y8yd5hy




    Quote Originally Posted by yosinocoupe View Post








    Ingles/English | MKV | 960x540 - Standar Definition | 1.24 Gb




    http://www32.zippyshare.com/v/95029312/file.html
    http://www.ziddu.com/download/223877...3.torrent.html

    Prorroga (si hubiese)
     
    Si hubiese, siempre estaria incluida en el unico link


    Ripper - Drax


    Nota: Este torrent contiene los Games 1, 2, 3, 4 y 5. Si solo queremos descargar el Game 5, desmarcar los anteriores Games.








    Quote Originally Posted by sh4rky5 View Post
    Miami Heat vs San Antonio Spurs
    2013.06.16 - 8:00 PM ET

    Language: English
    Ripped by: sh4rky5

    Format: MKV
    Video: H264, 640x360, 800 kbps, 29.97 fps
    Audio: AAC, ~60 kbps, 44.1 KHz, 2 ch
    Size: [ 660 ] MB

    Zippyshare:
    Uploaded:
    Code:
    http://uploaded.net/file/utzua45a/NBA.2013.06.16.Heat.vs.Spurs.360p.x264-001.mkv
    http://uploaded.net/file/tutw4qeb/NBA.2013.06.16.Heat.vs.Spurs.360p.x264-002.mkv
    http://uploaded.net/file/jaf2w11y/NBA.2013.06.16.Heat.vs.Spurs.360p.x264-003.mkv
    http://uploaded.net/file/abyj8lpq/NBA.2013.06.16.Heat.vs.Spurs.360p.x264-004.mkv
    In case of OT:
     

    It is included in the 4th video file. Or not


    Format: MKV
    Video: H264, 960x540, 1500 kbps, 29.97 fps
    Audio: AAC, ~80 kbps, 44.1 KHz, 2 ch
    Size: [ 1271 ] MB

    Zippyshare:
    Uploaded:
    Code:
    http://uploaded.net/file/r3v6eikc/NBA.2013.06.16.Heat.vs.Spurs.540p.x264-001.mkv
    http://uploaded.net/file/fen8d2z5/NBA.2013.06.16.Heat.vs.Spurs.540p.x264-002.mkv
    http://uploaded.net/file/71bp7xlv/NBA.2013.06.16.Heat.vs.Spurs.540p.x264-003.mkv
    http://uploaded.net/file/jhanqy24/NBA.2013.06.16.Heat.vs.Spurs.540p.x264-004.mkv
    In case of OT:
     

    It is included in the 4th video file. Or not


    Format: MKV
    Video: H264, 1280x720, 3000 kbps, 29.97 fps
    Audio: AAC, ~130 kbps, 44.1 KHz, 2 ch
    Size: [ 2453 ] MB

    Zippyshare:
    Uploaded:
    Code:
    http://uploaded.net/file/rs1npamm/NBA.2013.06.16.Heat.vs.Spurs.720p.x264-001.mkv
    http://uploaded.net/file/cs23q3nb/NBA.2013.06.16.Heat.vs.Spurs.720p.x264-002.mkv
    http://uploaded.net/file/2zpf44wh/NBA.2013.06.16.Heat.vs.Spurs.720p.x264-003.mkv
    http://uploaded.net/file/ahq2fpmx/NBA.2013.06.16.Heat.vs.Spurs.720p.x264-004.mkv
    In case of OT:
     

    It is included in the 4th video file. Or not




    Quote Originally Posted by mokotronk View Post




    Ruso/Russian - Online /360p-240p


    http://vk.com/video_ext.php?oid=8434...74143e128&hd=1

    Tiempo Extra
     
    Si hubiese estará siempre añadido a la 2ª parte, al 4º cuarto o al link único


    Last edited by wigan88; 17th June 2013 at 21:34.

  2. The Following 47 Users Say Thank You to wigan88 For This Useful Post:

    amk114 (17th June 2013), ArvydasSabonis (17th June 2013), bas8515 (17th June 2013), Chinorios (17th June 2013), dani188 (17th June 2013), djnewmoneyuk (17th June 2013), elachim (17th June 2013), extremista90 (17th June 2013), fogui34 (20th June 2013), Gaby24 (17th June 2013), gultim (17th June 2013), holonia (17th June 2013), juanitolocke (17th June 2013), jurasros (18th June 2013), kgalberto (17th June 2013), kubica04 (17th June 2013), lechugui (17th June 2013), looneytune (17th June 2013), mahmoodmj (17th June 2013), narcolepsico (17th June 2013), onor (17th June 2013), pasvihe (17th June 2013), ruper999 (17th June 2013), samuelasturies (17th June 2013), skyskyblue (17th June 2013), stevenage (17th June 2013), texastexas (17th June 2013), theghostcavalier (17th June 2013), tomroot (17th June 2013), tophat (17th June 2013), twofor (17th June 2013), Urbansa (17th June 2013), utep (17th June 2013), valenciaocho (17th June 2013), vituko (17th June 2013), wemble (17th June 2013), westend (17th June 2013), williamwallace13 (17th June 2013), xenaphobia (17th June 2013), yanis99 (17th June 2013), yeovil (17th June 2013), yomarianob (17th June 2013), yoohoo (17th June 2013), Yuhuuuu (17th June 2013), yyakima (17th June 2013), zestyy (17th June 2013), zoozoo (17th June 2013)

  3. #2
    Senior Member Profesional sppcctv's Avatar
    Join Date
    Apr 2012
    Location
    Albacete, España
    Posts
    3,855
    Thanks
    63
    Thanked 5,682 Times in 2,137 Posts





    Mediainfo:

    Code:
    General
    Unique ID                                : 234806479722289026231271911019749485672 (0xB0A6154253E71BB88732BB49372AAC68)
    Complete name                            : N:\Torrents\NBaFnls G5 MIA - SAS Esp 1st 720p.mkv
    Format                                   : Matroska
    Format version                           : Version 4 / Version 2
    File size                                : 1.11 GiB
    Duration                                 : 1h 23mn
    Overall bit rate                         : 1 888 Kbps
    Encoded date                             : UTC 2013-06-17 02:05:05
    Writing application                      : mkvmerge v6.2.0 ('Promised Land') built on Apr 28 2013 12:22:01
    Writing library                          : libebml v1.3.0 + libmatroska v1.4.0
    
    Video
    ID                                       : 1
    Format                                   : AVC
    Format/Info                              : Advanced Video Codec
    Format profile                           : High@L3.2
    Format settings, CABAC                   : Yes
    Format settings, ReFrames                : 4 frames
    Codec ID                                 : V_MPEG4/ISO/AVC
    Duration                                 : 1h 23mn
    Bit rate                                 : 1 755 Kbps
    Nominal bit rate                         : 1 904 Kbps
    Width                                    : 1 280 pixels
    Height                                   : 720 pixels
    Display aspect ratio                     : 16:9
    Frame rate                               : 25.000 fps
    Color space                              : YUV
    Chroma subsampling                       : 4:2:0
    Bit depth                                : 8 bits
    Scan type                                : Progressive
    Bits/(Pixel*Frame)                       : 0.076
    Stream size                              : 1.03 GiB (93%)
    Title                                    : By SpccTeam
    Writing library                          : x264 core 115 r2013 6fce39a
    Encoding settings                        : cabac=1 / ref=3 / deblock=1:0:0 / analyse=0x3:0x13 / me=hex / subme=7 / psy=1 / psy_rd=1.00:0.00 / mixed_ref=1 / me_range=16 / chroma_me=1 / trellis=1 / 8x8dct=1 / cqm=0 / deadzone=21,11 / fast_pskip=1 / chroma_qp_offset=-2 / threads=12 / sliced_threads=0 / nr=0 / decimate=1 / interlaced=0 / bluray_compat=0 / constrained_intra=0 / bframes=3 / b_pyramid=2 / b_adapt=1 / b_bias=0 / direct=1 / weightb=1 / open_gop=0 / weightp=2 / keyint=250 / keyint_min=25 / scenecut=40 / intra_refresh=0 / rc_lookahead=40 / rc=cbr / mbtree=1 / bitrate=1904 / ratetol=1.0 / qcomp=0.60 / qpmin=10 / qpmax=51 / qpstep=4 / vbv_maxrate=1904 / vbv_bufsize=19040 / nal_hrd=none / ip_ratio=1.40 / aq=1:1.00
    Language                                 : English
    Default                                  : Yes
    Forced                                   : No
    
    Audio
    ID                                       : 2
    Format                                   : MPEG Audio
    Format version                           : Version 1
    Format profile                           : Layer 3
    Mode                                     : Joint stereo
    Mode extension                           : MS Stereo
    Codec ID                                 : A_MPEG/L3
    Codec ID/Hint                            : MP3
    Duration                                 : 1h 23mn
    Bit rate mode                            : Constant
    Bit rate                                 : 96.0 Kbps
    Channel(s)                               : 2 channels
    Sampling rate                            : 44.1 KHz
    Compression mode                         : Lossy
    Delay relative to video                  : 14ms
    Stream size                              : 57.5 MiB (5%)
    Title                                    : Canal+ Deportes HD
    Language                                 : Spanish
    Default                                  : Yes
    Forced                                   : No
    Descarga:

    720p

    Primera Parte: (Q1 & Q2)
    Uploaded: http://ul.to/rm4q2s9q
    Depositfiles: http://dfiles.eu/files/royn8pia1

    Segunda Parte: (Q3 & Q4)
    Uploaded: http://ul.to/cb65xfrp
    Depositfiles: http://dfiles.eu/files/m2zv9bmu8

    Link Unico
    Uploaded: http://ul.to/1j8b0s3i
    Depositfiles: http://dfiles.eu/files/haeq5v885

    Links en Partes de 1Gb
    Uploaded:
    1. http://ul.to/c83xdg42
    2. http://ul.to/f0uywnsv
    3. http://ul.to/ov8609mz

    Depositfiles:
    1. http://dfiles.eu/files/i6abpvyco
    2. http://dfiles.eu/files/9zk95uj9a
    3. http://dfiles.eu/files/cnw1y2zh0

    TORRENT:
    Archivo.rar Con Imagenes de Muestra y el Torrent del Game 5
    Uploaded: http://ul.to/jrjnt5es
    Depositfiles: http://dfiles.eu/files/8vrps4uwt

    400p

    Primera Parte: (Q1 & Q2)
    Uploaded: http://ul.to/78p8hn0s
    Depositfiles: http://dfiles.eu/files/3neandzj9

    Segunda Parte: (Q3 & Q4)
    Uploaded: http://ul.to/j253iiab
    Depositfiles: http://dfiles.eu/files/3kbjc27q4

    Link Unico
    Uploaded: http://ul.to/8hshj0rk
    Depositfiles: http://dfiles.eu/files/rh6ip5kj1

    Links en Partes de 1Gb
    Uploaded:
    1. http://ul.to/l8icehke
    2. http://ul.to/6397cxe9

    Depositfiles:
    1. http://dfiles.eu/files/so1rz5fjc
    2. http://dfiles.eu/files/an7r0kmpc

    TORRENT:
    Archivo.rar Con Imagenes de Muestra y el Torrent del Game 5
    Uploaded: http://ul.to/6e42ktan
    Depositfiles: http://dfiles.eu/files/0idgrf0ps

    Last edited by sppcctv; 17th June 2013 at 06:02.
    Si por alguna casualidad RD cerrase, os podeís poner en contacto conmigo a través de Forocoches.

    Register Free Or Buy A Premium Account On Uploaded HERE
    Registrate Gratis O Compra una Cuenta Premium de Uploaded AQUI

    Eventos a la carta, Elige resolución, Idioma y Servidor del evento que quieras (Pasado o Futuro). MAS INFO AQUÍ.

  4. The Following 23 Users Say Thank You to sppcctv For This Useful Post:

    alejoparry (17th June 2013), angelmonroy (17th June 2013), arcelorin (21st July 2013), ArvydasSabonis (17th June 2013), asistencia (17th June 2013), bixirulo (17th June 2013), Brees (17th June 2013), dtos (17th June 2013), el_edu1 (17th June 2013), gabber_bcn (17th June 2013), georgesperec (17th June 2013), gramenaguer67 (17th June 2013), isans (17th June 2013), JRFPTARRA (17th June 2013), mclll (17th June 2013), mcpachu (17th June 2013), Migueeelsp (17th June 2013), peternak77 (17th June 2013), ruper999 (17th June 2013), suciedad (17th June 2013), theghostcavalier (17th June 2013), vituko (17th June 2013), Yuhuuuu (17th June 2013)

  5. #3
    Banned Profesional
    Join Date
    Oct 2012
    Posts
    2,934
    Thanks
    1,971
    Thanked 5,710 Times in 2,200 Posts

    NBA Finals - Game 5 - 16/06/2013
    San Antonio Spurs v. Miami Heat
    _________________________________________________

    Broadcast : Canal+ HD Language : Spanish Source : DVBRIP
    Encoding : video 2000 Kbps h.264 mpeg-ts 25fps - audio mp3 128kbps Duration : 02:00:00
    Size : ~2,5GB Release Type : HD 720p Full Match

    _________________________________________________




    1st Quarter

    http://ul.to/wmb4ifgf

    2nd Quarter

    http://ul.to/j7kjfmk0

    3rd Quarter

    http://ul.to/bis430yu

    4th Quarter

    http://ul.to/ki385jj2

    Overtime (if any!)

     
    no



    _________________________________________________

    Broadcast : Canal+ HD Language : Spanish Source : DVBRIP
    Encoding : video 1500 Kbps h.264 mkv 25fps - audio mp3 128kbps Duration : 02:00:00
    Size : ~1,5GB Release Type : SD 400p Full Match

    _________________________________________________




    1st Quarter

    http://ul.to/mlav8gzj

    2nd Quarter

    http://ul.to/hp2ofztl

    3rd Quarter

    http://ul.to/42o6ul05

    4th Quarter

    http://ul.to/nscdraq6

    Overtime (if any!)

     
    no



    _________________________________________________

    Broadcast : ESPN HD Language : English Source : DVBRIP
    Encoding : video 4000 Kbps h.264 mkv 60fps - audio AC3 384kbps Duration : 02:00:00
    Size : ~4,5GB Release Type : HD 720p Full Match

    _________________________________________________



    1st Half

    http://ul.to/u8qsge7t

    2nd Half

    http://ul.to/biy5xyrq

    Overtime (if any!)

     
    no



    _________________________________________________

    Broadcast : ESPN HD Language : English Source : DVBRIP
    Encoding : video 1500 Kbps h.264 mkv 60fps - audio mp3 128kbps Duration : 02:00:00
    Size : ~1,5GB Release Type : SD 400p Full Match

    _________________________________________________



    1st Half

    http://ul.to/g3cjs3m1

    2nd Half

    http://ul.to/8ytslybu

    Overtime (if any!)

     
    no



    _________________________________________________

    Broadcast : ESPN HD Language : English Source : DVBRIP
    Encoding : video 3000 Kbps h.264 mkv 30fps - audio AC3 384kbps Duration : 02:00:00
    Size : ~3GB Release Type : HD 720p Full Match

    _________________________________________________



    1st Half

    http://ul.to/z1r3pqjk

    2nd Half

    http://ul.to/ud61lkt9

    Overtime (if any!)

     
    no



    _________________________________________________

    Broadcast : ESPN HD Language : English Source : DVBRIP
    Encoding : video 1500 Kbps h.264 mkv 30fps - audio mp3 128kbps Duration : 02:00:00
    Size : ~1,5GB Release Type : SD 400p Full Match

    _________________________________________________



    1st Half

    http://ul.to/9xlz722x

    2nd Half

    http://ul.to/gum0sojt

    Overtime (if any!)

     
    no
    Last edited by Sagopa Kajmer; 17th June 2013 at 13:10.

  6. The Following 10 Users Say Thank You to Sagopa Kajmer For This Useful Post:

    angelmonroy (17th June 2013), AORTONI (17th June 2013), GaLaTaMaN (17th June 2013), gramenaguer67 (17th June 2013), juniortrack (17th June 2013), ruper999 (17th June 2013), susonm (17th June 2013), theghostcavalier (17th June 2013), Tosupi (17th June 2013), vituko (17th June 2013)

  7. #4
    Senior Member Balón de oro
    Join Date
    Mar 2010
    Posts
    27,172
    Thanks
    96
    Thanked 22,985 Times in 11,605 Posts
    NBA Finals 2013, Game #5: Miami Heat vs. San Antonio Spurs 16-06-2013





    Format : mpeg
    File size : 2.53 GiB
    Source:CANAL+ HD
    Resolution:1280 X 720
    Language:Spanish

    Last edited by lizhengxiang; 17th June 2013 at 08:24.

  8. The Following 11 Users Say Thank You to lizhengxiang For This Useful Post:

    angelmonroy (17th June 2013), AORTONI (17th June 2013), arcelorin (21st July 2013), kris10011 (17th June 2013), mariano_nito (17th June 2013), Monegrino135 (17th June 2013), REFOYO (17th June 2013), ruper999 (17th June 2013), Sheriff Lorre (17th June 2013), theghostcavalier (17th June 2013), vituko (17th June 2013)

  9. #5
    Senior Member Balón de oro
    Join Date
    Oct 2010
    Posts
    13,388
    Thanks
    807
    Thanked 17,759 Times in 7,607 Posts

    Wink NBA 2013 Finals - Game 5: Miami Heat @ San Antonio Spurs (2013.06.16)

    NBA 2013 Finals - Game 5
    Miami Heat vs San Antonio Spurs


    2013.06.16 - 20:00 ET






    Code:
    Language............: English
    Ripper..............: Reborn4HD
    Size................: 4.94 GB
    Format..............: mkv
    Resolution..........: 1280x720
    Video...............: H.264, 4500 Kbps @ 59.94 fps
    Audio...............: AAC, 128 Kbps, 44.1 KHz, 2 channels
    Release Note........: Player Introduction Included, Unnecessary Footage Between Quarters Removed.




    Code:
    http://uploaded.net/file/7b8znim9/NBA.2013.Finals.G5.Heat.vs.Spurs.720p.ilprip.60fps.x264-Reborn4HD.mkv
     
    or
     
    http://rapidstation.com/0730xu5zumdz/NBA.2013.Finals.G5.Heat.vs.Spurs.720p.ilprip.60fps.x264-Reborn4HD.mkv.html



    Code:
    http://uploaded.net/file/a32fh1fh/NBA.2013.Finals.G5.Heat.vs.Spurs.720p.ilprip.60fps.x264-Reborn4HD-1.mkv
    http://uploaded.net/file/171wzlqn/NBA.2013.Finals.G5.Heat.vs.Spurs.720p.ilprip.60fps.x264-Reborn4HD-2.mkv
    http://uploaded.net/file/m8vwdn4p/NBA.2013.Finals.G5.Heat.vs.Spurs.720p.ilprip.60fps.x264-Reborn4HD-3.mkv
    http://uploaded.net/file/odi590az/NBA.2013.Finals.G5.Heat.vs.Spurs.720p.ilprip.60fps.x264-Reborn4HD-4.mkv
     
    or
     
    http://rapidstation.com/jleganeoapr8/NBA.2013.Finals.G5.Heat.vs.Spurs.720p.ilprip.60fps.x264-Reborn4HD-1.mkv.html
    http://rapidstation.com/vt029m60gyjw/NBA.2013.Finals.G5.Heat.vs.Spurs.720p.ilprip.60fps.x264-Reborn4HD-2.mkv.html
    http://rapidstation.com/w91xfuqrioox/NBA.2013.Finals.G5.Heat.vs.Spurs.720p.ilprip.60fps.x264-Reborn4HD-3.mkv.html
    http://rapidstation.com/kigepvaqi9vx/NBA.2013.Finals.G5.Heat.vs.Spurs.720p.ilprip.60fps.x264-Reborn4HD-4.mkv.html
    Extra time if any
     

    if there is any, it is included in 4th quarter.




    Enjoy and a simple thanks to me would be great!

    Last edited by kclayman; 17th June 2013 at 06:59.

  10. The Following 4 Users Say Thank You to kclayman For This Useful Post:

    bt67s (17th June 2013), ruper999 (17th June 2013), theghostcavalier (17th June 2013), vituko (17th June 2013)

  11. #6
    Senior Member Balón de oro
    Join Date
    Oct 2010
    Posts
    13,388
    Thanks
    807
    Thanked 17,759 Times in 7,607 Posts
    NBA 2013 Finals - Game 5
    Miami Heat vs San Antonio Spurs


    2013.06.16 - 20:00 ET






    Code:
    Language............: English
    Ripper..............: Reborn4HD
    Size................: 2.39 GB
    Format..............: mp4 + mkv
    Resolution..........: 1280x720
    Video...............: H.264, 3000 Kbps @ 29.97 fps
    Audio...............: AAC, 128 Kbps, 44.1 KHz, 2 channels




    Code:
    http://uploaded.net/file/1mcou4lf/NBA.2013.Finals.G5.Heat.vs.Spurs.720p.ilprip.30fps.x264-Reborn4HD.mp4
     
    or
     
    http://rapidstation.com/ndja1xkxb154/NBA.2013.Finals.G5.Heat.vs.Spurs.720p.ilprip.30fps.x264-Reborn4HD.mp4.html



    Code:
    http://uploaded.net/file/mqws22by/NBA.2013.Finals.G5.Heat.vs.Spurs.720p.ilprip.30fps.x264-Reborn4HD-1.mkv
    http://uploaded.net/file/gswxstvx/NBA.2013.Finals.G5.Heat.vs.Spurs.720p.ilprip.30fps.x264-Reborn4HD-2.mkv
    http://uploaded.net/file/7utjz094/NBA.2013.Finals.G5.Heat.vs.Spurs.720p.ilprip.30fps.x264-Reborn4HD-3.mkv
    http://uploaded.net/file/4twmyh2d/NBA.2013.Finals.G5.Heat.vs.Spurs.720p.ilprip.30fps.x264-Reborn4HD-4.mkv
     
    or
     
    http://rapidstation.com/p9ag7lkuhdrh/NBA.2013.Finals.G5.Heat.vs.Spurs.720p.ilprip.30fps.x264-Reborn4HD-1.mkv.html
    http://rapidstation.com/brtqp2ip21pb/NBA.2013.Finals.G5.Heat.vs.Spurs.720p.ilprip.30fps.x264-Reborn4HD-2.mkv.html
    http://rapidstation.com/e146ylc0gop3/NBA.2013.Finals.G5.Heat.vs.Spurs.720p.ilprip.30fps.x264-Reborn4HD-3.mkv.html
    http://rapidstation.com/zbg430pldwmb/NBA.2013.Finals.G5.Heat.vs.Spurs.720p.ilprip.30fps.x264-Reborn4HD-4.mkv.html
    Extra time if any
     

    if there is any, it is included in 4th quarter.




    Enjoy and a simple thanks to me would be great!

    Last edited by kclayman; 17th June 2013 at 07:45.

  12. The Following 3 Users Say Thank You to kclayman For This Useful Post:

    jurasros (18th June 2013), ruper999 (17th June 2013), theghostcavalier (17th June 2013)

  13. #7
    Senior Member Amateur
    Join Date
    Jan 2011
    Posts
    152
    Thanks
    27
    Thanked 44 Times in 24 Posts
    thank you awesome!

  14. #8
    Senior Member Profesional sppcctv's Avatar
    Join Date
    Apr 2012
    Location
    Albacete, España
    Posts
    3,855
    Thanks
    63
    Thanked 5,682 Times in 2,137 Posts





    Mediainfo:
    Code:
    General
    Unique ID                                : 238307777876319045497730772670115782340 (0xB3486896070C71D58D16CECF00149EC4)
    Complete name                            : N:\Torrents\NBA 2013 Finals - San Antonio Spurs - Miami Heat [SPPCTEAM]\NBaFnls G5 MIA - SAS Esp 400p.mkv
    Format                                   : Matroska
    Format version                           : Version 4 / Version 2
    File size                                : 1.55 GiB
    Duration                                 : 2h 47mn
    Overall bit rate                         : 1 327 Kbps
    Encoded date                             : UTC 2013-06-17 03:25:08
    Writing application                      : mkvmerge v6.2.0 ('Promised Land') built on Apr 28 2013 12:22:01
    Writing library                          : libebml v1.3.0 + libmatroska v1.4.0
    
    Video
    ID                                       : 1
    Format                                   : AVC
    Format/Info                              : Advanced Video Codec
    Format profile                           : Main@L3.0
    Format settings, CABAC                   : Yes
    Format settings, ReFrames                : 4 frames
    Codec ID                                 : V_MPEG4/ISO/AVC
    Duration                                 : 2h 47mn
    Nominal bit rate                         : 1 200 Kbps
    Width                                    : 720 pixels
    Height                                   : 400 pixels
    Display aspect ratio                     : 16:9
    Frame rate                               : 25.000 fps
    Color space                              : YUV
    Chroma subsampling                       : 4:2:0
    Bit depth                                : 8 bits
    Scan type                                : Progressive
    Bits/(Pixel*Frame)                       : 0.167
    Title                                    : By SppccTeam
    Writing library                          : x264 core 120
    Encoding settings                        : cabac=1 / ref=1 / deblock=1:0:0 / analyse=0x1:0x111 / me=hex / subme=2 / psy=1 / psy_rd=1.00:0.00 / mixed_ref=0 / me_range=16 / chroma_me=1 / trellis=0 / 8x8dct=0 / cqm=0 / deadzone=21,11 / fast_pskip=1 / chroma_qp_offset=0 / threads=12 / sliced_threads=0 / nr=0 / decimate=1 / interlaced=0 / bluray_compat=0 / constrained_intra=0 / bframes=3 / b_pyramid=2 / b_adapt=1 / b_bias=0 / direct=1 / weightb=1 / open_gop=0 / weightp=1 / keyint=250 / keyint_min=25 / scenecut=40 / intra_refresh=0 / rc_lookahead=10 / rc=abr / mbtree=1 / bitrate=1200 / ratetol=1.0 / qcomp=0.60 / qpmin=3 / qpmax=69 / qpstep=4 / ip_ratio=1.40 / aq=1:1.00
    Language                                 : English
    Default                                  : Yes
    Forced                                   : No
    Color primaries                          : BT.709-5, BT.1361, IEC 61966-2-4, SMPTE RP177
    Transfer characteristics                 : BT.709-5, BT.1361
    Matrix coefficients                      : BT.709-5, BT.1361, IEC 61966-2-4 709, SMPTE RP177
    
    Audio
    ID                                       : 2
    Format                                   : AAC
    Format/Info                              : Advanced Audio Codec
    Format profile                           : LC
    Codec ID                                 : A_AAC
    Duration                                 : 2h 47mn
    Channel(s)                               : 2 channels
    Channel positions                        : Front: L R
    Sampling rate                            : 44.1 KHz
    Compression mode                         : Lossy
    Title                                    : Canal+ Deportes HD
    Language                                 : Spanish
    Default                                  : Yes
    Forced                                   : No

    Descarga Torrent:
    Archivo.rar con Imagenes de Muestra y el Torrent con los 5 Games disputados.
    (Si se desea bajar uno o varios, desmarcar las casillas de los que no se quieran descargar)

    Uploaded: http://ul.to/nthuoewe
    Depositfiles: http://dfiles.eu/files/e30858tv6

    Si por alguna casualidad RD cerrase, os podeís poner en contacto conmigo a través de Forocoches.

    Register Free Or Buy A Premium Account On Uploaded HERE
    Registrate Gratis O Compra una Cuenta Premium de Uploaded AQUI

    Eventos a la carta, Elige resolución, Idioma y Servidor del evento que quieras (Pasado o Futuro). MAS INFO AQUÍ.

  15. The Following 5 Users Say Thank You to sppcctv For This Useful Post:

    angelmonroy (17th June 2013), Maragator (17th June 2013), ruper999 (17th June 2013), susonm (17th June 2013), theghostcavalier (17th June 2013)

  16. #9
    Moderator Balón de oro yosinocoupe's Avatar
    Join Date
    Oct 2009
    Posts
    25,242
    Thanks
    773
    Thanked 45,428 Times in 12,759 Posts








    Ingles/English | MKV | 1280x720 - 60 frames por segundo - Alta Definicion/High Definition | 4.28 Gb




    http://www56.zippyshare.com/v/96105880/file.html
    http://www.ziddu.com/download/223871...3.torrent.html

    Prorroga (si hubiese)
     
    Si hubiese, siempre estaria incluida en el unico link


    Ripper - m4rtyr

    Nota: Este torrent contiene los Games 1, 2, 3, 4 y 5. Si solo queremos descargar el Game 5, desmarcar los anteriores Games.




  17. The Following 16 Users Say Thank You to yosinocoupe For This Useful Post:

    bigtortiz (17th June 2013), jabalcon (17th June 2013), josemo56 (17th June 2013), jujomual (17th June 2013), Kajuman (17th June 2013), kolza (17th June 2013), likedamaster (17th June 2013), lordofthefrikis (17th June 2013), magico potito (17th June 2013), marcoricciuti (17th June 2013), MarMi_bcn (17th June 2013), Migueeelsp (17th June 2013), mixxer (17th June 2013), Nyuszko (18th June 2013), piscopo (17th June 2013), theghostcavalier (17th June 2013)

  18. #10
    Moderator Balón de oro yosinocoupe's Avatar
    Join Date
    Oct 2009
    Posts
    25,242
    Thanks
    773
    Thanked 45,428 Times in 12,759 Posts








    Ingles/English | Avi | 1280x720 - Alta Definicion/High Definition | 2.66 Gb




    http://www10.zippyshare.com/v/9886541/file.html
    http://www.ziddu.com/download/223871...3.torrent.html

    Prorroga (si hubiese)
     
    Si hubiese, siempre estaria incluida en el unico link


    Ripper - waha

    Nota: Este torrent solo contiene el Game 5




  19. The Following 24 Users Say Thank You to yosinocoupe For This Useful Post:

    an-arhos (17th June 2013), auman23 (17th June 2013), BlackSkorpio (17th June 2013), dennel (17th June 2013), errores (17th June 2013), fate (17th June 2013), Floga (17th June 2013), Gonzas (17th June 2013), josemo56 (17th June 2013), Kajuman (17th June 2013), lordofthefrikis (17th June 2013), magico potito (17th June 2013), medaro (17th June 2013), mezcolanza (17th June 2013), Migueeelsp (17th June 2013), muodissi (17th June 2013), Nyuszko (18th June 2013), oM3GA-DeSTiNy (17th June 2013), Pagmun (17th June 2013), Panguna (17th June 2013), speedas (17th June 2013), theghostcavalier (17th June 2013), tonys1 (17th June 2013), vituko (17th June 2013)

Posting Permissions

  • You may not post new threads
  • You may not post replies
  • You may not post attachments
  • You may not edit your posts
  •