Page 3 of 4 FirstFirst 1234 LastLast
Results 21 to 30 of 31

Thread: NBA Finals 2013, Game #6: San Antonio Spurs vs. Miami Heat 18-06-2013

Share |
  1. #21
    Senior Member Amateur
    Join Date
    Jan 2013
    Posts
    691
    Thanks
    53
    Thanked 949 Times in 370 Posts
    mucho gracias todos

  2. #22
    Senior Member Profesional rubemar21's Avatar
    Join Date
    Mar 2012
    Posts
    1,698
    Thanks
    0
    Thanked 304 Times in 240 Posts




    SAN ANTONIO SPURS vs MIAMI HEAT
    NBA FINALS
    GAME 6
    Code:
    (18/06/2013) - ESPAÑOL (sólo audio) Narración: Carlos Coello


    Code:
    (18/06/2013) - CATALÁN (sólo audio) Narración: Nino Vàzquez Comentarios: Josep Navarro
    Para colaborar en basket, fútbol, balonmano, o el deporte que quieras, puedes contactar en info@pasiondeportivaradio.com

  3. #23
    Senior Member Profesional sppcctv's Avatar
    Join Date
    Apr 2012
    Location
    Albacete, España
    Posts
    3,855
    Thanks
    63
    Thanked 5,682 Times in 2,137 Posts





    Mediainfo:
    Code:
    General
    Unique ID                                : 179229446628814272225358213121908423613 (0x86D655F8286AC54AB7592E4EF4203BBD)
    Complete name                            : N:\Convertidos\The Finals 2013. Six Game. San Antonio Spurs - Miami Heat 720p.mkv
    Format                                   : Matroska
    Format version                           : Version 4 / Version 2
    File size                                : 3.33 GiB
    Duration                                 : 2h 52mn
    Overall bit rate                         : 2 760 Kbps
    Encoded date                             : UTC 2013-06-19 13:24:50
    Writing application                      : mkvmerge v6.2.0 ('Promised Land') built on Apr 28 2013 12:22:01
    Writing library                          : libebml v1.3.0 + libmatroska v1.4.0
    
    Video
    ID                                       : 1
    Format                                   : AVC
    Format/Info                              : Advanced Video Codec
    Format profile                           : Main@L3.1
    Format settings, CABAC                   : Yes
    Format settings, ReFrames                : 4 frames
    Codec ID                                 : V_MPEG4/ISO/AVC
    Duration                                 : 2h 52mn
    Bit rate                                 : 2 500 Kbps
    Width                                    : 1 280 pixels
    Height                                   : 720 pixels
    Display aspect ratio                     : 16:9
    Frame rate                               : 25.000 fps
    Color space                              : YUV
    Chroma subsampling                       : 4:2:0
    Bit depth                                : 8 bits
    Scan type                                : Progressive
    Bits/(Pixel*Frame)                       : 0.109
    Stream size                              : 2.95 GiB (89%)
    Title                                    : By SppccTeam
    Writing library                          : x264 core 120
    Encoding settings                        : cabac=1 / ref=1 / deblock=1:0:0 / analyse=0x1:0x111 / me=hex / subme=2 / psy=1 / psy_rd=1.00:0.00 / mixed_ref=0 / me_range=16 / chroma_me=1 / trellis=0 / 8x8dct=0 / cqm=0 / deadzone=21,11 / fast_pskip=1 / chroma_qp_offset=0 / threads=12 / sliced_threads=0 / nr=0 / decimate=1 / interlaced=0 / bluray_compat=0 / constrained_intra=0 / bframes=3 / b_pyramid=2 / b_adapt=1 / b_bias=0 / direct=1 / weightb=1 / open_gop=0 / weightp=1 / keyint=250 / keyint_min=25 / scenecut=40 / intra_refresh=0 / rc_lookahead=10 / rc=abr / mbtree=1 / bitrate=2500 / ratetol=1.0 / qcomp=0.60 / qpmin=3 / qpmax=69 / qpstep=4 / ip_ratio=1.40 / aq=1:1.00
    Language                                 : Spanish
    Default                                  : Yes
    Forced                                   : No
    Color primaries                          : BT.709-5, BT.1361, IEC 61966-2-4, SMPTE RP177
    Transfer characteristics                 : BT.709-5, BT.1361
    Matrix coefficients                      : BT.709-5, BT.1361, IEC 61966-2-4 709, SMPTE RP177
    
    Audio #1
    ID                                       : 2
    Format                                   : AC-3
    Format/Info                              : Audio Coding 3
    Mode extension                           : CM (complete main)
    Codec ID                                 : A_AC3
    Duration                                 : 2h 52mn
    Bit rate mode                            : Constant
    Bit rate                                 : 128 Kbps
    Channel(s)                               : 2 channels
    Channel positions                        : Front: L R
    Sampling rate                            : 48.0 KHz
    Bit depth                                : 16 bits
    Compression mode                         : Lossy
    Stream size                              : 158 MiB (5%)
    Title                                    : Castellano
    Language                                 : Spanish
    Default                                  : Yes
    Forced                                   : No
    
    Audio #2
    ID                                       : 3
    Format                                   : AC-3
    Format/Info                              : Audio Coding 3
    Mode extension                           : CM (complete main)
    Codec ID                                 : A_AC3
    Duration                                 : 2h 52mn
    Bit rate mode                            : Constant
    Bit rate                                 : 128 Kbps
    Channel(s)                               : 2 channels
    Channel positions                        : Front: L R
    Sampling rate                            : 48.0 KHz
    Bit depth                                : 16 bits
    Compression mode                         : Lossy
    Stream size                              : 158 MiB (5%)
    Title                                    : English
    Language                                 : English
    Default                                  : No
    Forced                                   : No

    DUAL VERSION: Español - English


    Rip de la Version 1080i Posteada aqui Por Yosinocoupe

    Capper Original: IlVarsh

    Descarga:

    720p:

    Link Unico:
    Uploaded: http://ul.to/h9735huo
    Depositfiles: http://dfiles.eu/files/8r7nozk6g

    Links De 1 Gb
    Uploaded:
    1. http://ul.to/58d6ayvq
    2. http://ul.to/axsewpnc
    3. http://ul.to/1xm5gkz2
    4. http://ul.to/lo1d475c

    Depositfiles:
    1. http://dfiles.eu/files/qv5cmwb9d
    2. http://dfiles.eu/files/3r6mw8lmv
    3. http://dfiles.eu/files/z80vqqc2b
    4. http://dfiles.eu/files/cwiskmd61

    Last edited by sppcctv; 19th June 2013 at 21:13.
    Si por alguna casualidad RD cerrase, os podeís poner en contacto conmigo a través de Forocoches.

    Register Free Or Buy A Premium Account On Uploaded HERE
    Registrate Gratis O Compra una Cuenta Premium de Uploaded AQUI

    Eventos a la carta, Elige resolución, Idioma y Servidor del evento que quieras (Pasado o Futuro). MAS INFO AQUÍ.

  4. The Following 3 Users Say Thank You to sppcctv For This Useful Post:

    arcelorin (22nd July 2013), framor (19th June 2013), julio_1208 (20th June 2013)

  5. #24
    Senior Member Balón de oro mokotronk's Avatar
    Join Date
    Sep 2009
    Location
    Sevilla
    Posts
    18,664
    Thanks
    5,620
    Thanked 29,225 Times in 8,901 Posts





    By: mokotronk
    Idioma: Español
    Formato: MKV
    Resolución: 850x400
    Tamaño: 1,11 Gb



    1er Cuarto
    http://www.putlocker.com/file/A1A54D73DC291EE1

    2º Cuarto
    http://www.putlocker.com/file/B751E6E92A41A8EF

    3er Cuarto
    http://www.putlocker.com/file/F44341641A5B7847

    4º Cuarto
    http://www.putlocker.com/file/DD0078880F246113

    Tiempo Extra
     
    Si hubiese estará siempre añadido a la 2ª parte o al 4º cuarto


    Last edited by mokotronk; 20th June 2013 at 01:56.

  6. The Following 6 Users Say Thank You to mokotronk For This Useful Post:

    arcelorin (22nd July 2013), Brees (19th June 2013), ikerkasiyas (20th June 2013), julio_1208 (20th June 2013), lordofthefrikis (20th June 2013), wasomen (19th June 2013)

  7. #25
    Senior Member Profesional
    Join Date
    Mar 2013
    Posts
    1,180
    Thanks
    738
    Thanked 408 Times in 385 Posts
    Muchas gracias Mokotronk!!!

  8. The Following User Says Thank You to lordofthefrikis For This Useful Post:

    mokotronk (20th June 2013)

  9. #26
    Senior Member Amateur
    Join Date
    Dec 2009
    Location
    Valencia
    Posts
    661
    Thanks
    0
    Thanked 62 Times in 59 Posts
    muchas graciassss por el partidoooo

  10. #27
    Senior Member Amateur
    Join Date
    Feb 2008
    Posts
    486
    Thanks
    362
    Thanked 11 Times in 10 Posts
    Muchas gracias.

    Un saludo.

  11. #28
    Senior Member Profesional
    Join Date
    Jun 2011
    Posts
    2,570
    Thanks
    5,996
    Thanked 733 Times in 679 Posts
    gracias por el partidooooooo

  12. #29
    Member Principiante
    Join Date
    Dec 2009
    Posts
    56
    Thanks
    93
    Thanked 11 Times in 8 Posts
    Muchas gracias

  13. #30
    Senior Member Balón de oro Lone Tiger's Avatar
    Join Date
    Mar 2014
    Posts
    57,831
    Thanks
    6,962
    Thanked 100,934 Times in 37,950 Posts

    BASKETBALL: 2013 NBA Finals, Game 6 - San Antonio Spurs @ Miami Heat - 18.06.2013



    Ripper........ jaguar777
    Video......... mkv, h.264, 1920х1080, 59.94 fps, ~6800 kbps
    Audio......... English, aac, 44.1 khz, Stereo, 128 kbps
    Size........... 4.32 GB
    Broadcast.. NBA TV


    TORRENT
    http://j.gs/Dsgl
    http://gestyy.com/w90CiD

  14. The Following User Says Thank You to Lone Tiger For This Useful Post:

    RedDevil002 (24th March 2020)

Posting Permissions

  • You may not post new threads
  • You may not post replies
  • You may not post attachments
  • You may not edit your posts
  •