Page 1 of 5 123 ... LastLast
Results 1 to 10 of 41

Thread: NBA Finals 2013, Game #7: San Antonio Spurs vs. Miami Heat 20-06-2013

Share |
  1. #1
    Senior Member Crack wigan88's Avatar
    Join Date
    May 2011
    Location
    Philadelphia, Pa., USA
    Posts
    6,364
    Thanks
    28
    Thanked 53,870 Times in 4,973 Posts

    NBA Finals 2013, Game #7: San Antonio Spurs vs. Miami Heat 20-06-2013

    SPANISH:

    NBA Finals 2013, Game #7: San Antonio Spurs vs. Miami Heat [1000 kbps], 6-20-2013, courtesy of ESPN Deportes [1st & 2nd] & ESPN Latin America [3rd & 4th]. Links below:











    Commentary: Spanish
    File Format: FLV
    Resolution: 640 X 360
    Total Size: 571 MB

    1st Quarter:

    http://adf.ly/Qr9M5

    2nd Quarter:

    http://adf.ly/QrCVM

    http://adf.ly/QrE0L

    3rd Quarter:

    http://adf.ly/QrKqD

    4th Quarter [Stream went offline with 3:06 left in the 4th Quarter. Watch the remainder of the 4th Quarter with my English Cap.]:

    http://adf.ly/QrQNy

    Overtime, if necessary:
     

    ---------------


    Enjoy Everyone!!!

    Wigan

    Quote Originally Posted by lizhengxiang View Post
    720P:

    NBA Finals 2013, Game #7: San Antonio Spurs vs. Miami Heat 20-06-2013







    Format : mpeg
    File size : 2.54 GiB
    Source:CANAL+ HD
    Resolution:1280 X 720
    Language:Spanish


    400P:

    NBA Finals 2013, Game #7: San Antonio Spurs vs. Miami Heat 20-06-2013





    Format : mpeg
    File size : 1.84 GiB
    Source:CANAL+
    Resolution:720 X 406
    Language:Spanish

    Quote Originally Posted by sppcctv View Post





    Mediainfo:

    Code:
    General
    Unique ID                                : 173931675409661238003549049289857246446 (0x82DA05AE9079F6AEAB6C362F9A0B24EE)
    Complete name                            : N:\Torrents\NbaFnls G7 - SAS - MIA 1st 720p Esp.mkv
    Format                                   : Matroska
    Format version                           : Version 4 / Version 2
    File size                                : 1.52 GiB
    Duration                                 : 1h 50mn
    Overall bit rate                         : 1 963 Kbps
    Encoded date                             : UTC 2013-06-21 03:03:33
    Writing application                      : mkvmerge v6.2.0 ('Promised Land') built on Apr 28 2013 12:22:01
    Writing library                          : libebml v1.3.0 + libmatroska v1.4.0
    
    Video
    ID                                       : 1
    Format                                   : AVC
    Format/Info                              : Advanced Video Codec
    Format profile                           : High@L3.2
    Format settings, CABAC                   : Yes
    Format settings, ReFrames                : 4 frames
    Codec ID                                 : V_MPEG4/ISO/AVC
    Duration                                 : 1h 50mn
    Bit rate                                 : 1 904 Kbps
    Width                                    : 1 280 pixels
    Height                                   : 720 pixels
    Display aspect ratio                     : 16:9
    Frame rate                               : 25.000 fps
    Color space                              : YUV
    Chroma subsampling                       : 4:2:0
    Bit depth                                : 8 bits
    Scan type                                : Progressive
    Bits/(Pixel*Frame)                       : 0.083
    Stream size                              : 1.41 GiB (93%)
    Title                                    : By SppccTeam
    Writing library                          : x264 core 115 r2013 6fce39a
    Encoding settings                        : cabac=1 / ref=3 / deblock=1:0:0 / analyse=0x3:0x13 / me=hex / subme=7 / psy=1 / psy_rd=1.00:0.00 / mixed_ref=1 / me_range=16 / chroma_me=1 / trellis=1 / 8x8dct=1 / cqm=0 / deadzone=21,11 / fast_pskip=1 / chroma_qp_offset=-2 / threads=12 / sliced_threads=0 / nr=0 / decimate=1 / interlaced=0 / bluray_compat=0 / constrained_intra=0 / bframes=3 / b_pyramid=2 / b_adapt=1 / b_bias=0 / direct=1 / weightb=1 / open_gop=0 / weightp=2 / keyint=250 / keyint_min=25 / scenecut=40 / intra_refresh=0 / rc_lookahead=40 / rc=cbr / mbtree=1 / bitrate=1904 / ratetol=1.0 / qcomp=0.60 / qpmin=10 / qpmax=51 / qpstep=4 / vbv_maxrate=1904 / vbv_bufsize=19040 / nal_hrd=none / ip_ratio=1.40 / aq=1:1.00
    Language                                 : Spanish
    Default                                  : Yes
    Forced                                   : No
    
    Audio
    ID                                       : 2
    Format                                   : MPEG Audio
    Format version                           : Version 1
    Format profile                           : Layer 3
    Mode                                     : Joint stereo
    Mode extension                           : MS Stereo
    Codec ID                                 : A_MPEG/L3
    Codec ID/Hint                            : MP3
    Duration                                 : 1h 50mn
    Bit rate mode                            : Constant
    Bit rate                                 : 96.0 Kbps
    Channel(s)                               : 2 channels
    Sampling rate                            : 44.1 KHz
    Compression mode                         : Lossy
    Delay relative to video                  : 26ms
    Stream size                              : 76.0 MiB (5%)
    Title                                    : Canal+ Deportes HD
    Language                                 : Spanish
    Default                                  : Yes
    Forced                                   : No
    Descarga:

    720p:

    1ª Parte: (Previo, Q1 & Q2)
    Uploaded: http://ul.to/vjrfyp6w
    Depositfiles: http://dfiles.eu/files/duqxrs6wr

    2ª Parte: (Q3, Q4, NBA Trophy & Post-Partido)
    Uploaded: http://ul.to/nejaivbb
    Depositfiles: http://dfiles.eu/files/1rwdsgtxf

    Single Link
    Uploaded: http://ul.to/whlcmvhy
    Depositfiles: http://dfiles.eu/files/368c0gqqn

    1Gb Links:
    Uploaded:
    1. http://ul.to/0ez8ep99
    2. http://ul.to/06k3ylc2
    3. http://ul.to/7gqsaiur

    Depositfiles:
    1. http://dfiles.eu/files/rmaaedxzo
    2. http://dfiles.eu/files/vx5414rqn
    3. http://dfiles.eu/files/671gjzfzn

    TORRENT:
    Archivo.rar Con Imagenes de Muestra y el Torrent del Game 7

    Uploaded: http://ul.to/mjp95tfq
    Depositfiles: http://dfiles.eu/files/95gkuxjkt


    400p:

    1ª Parte: (Previo, Q1 & Q2)
    Uploaded: http://ul.to/hvo2f6pp
    Depositfiles: http://dfiles.eu/files/o70cb2e3n

    2ª Parte: (Q3, Q4, NBA Trophy & Post-Partido)
    Uploaded: http://ul.to/6l4wb8d3
    Depositfiles: http://dfiles.eu/files/qg5b43kpn

    Single Link
    Uploaded: http://ul.to/cdj3toto
    Depositfiles: http://dfiles.eu/files/lslemestp

    1Gb Links:
    Uploaded:
    1. http://ul.to/gx4yfmws
    2. http://ul.to/qoytge9o

    Depositfiles:
    1. http://dfiles.eu/files/2lqz0muum
    2. http://dfiles.eu/files/cm8azudq1

    TORRENT:
    Archivo.rar Con Imagenes de Muestra y el Torrent del Game 7

    Uploaded: http://ul.to/0m8w9ue3
    Depositfiles: http://dfiles.eu/files/ljo96ixg4

    OT If Possible:
     

    Added If Possible, on 2nd Half, between Q4 and NBA Trophy


    Si alguna vez te has bajado alguno de mis archivos, por favor, lee esta carta:
    If Sometimes you have downloade one of my files, pleade, read this letter:

     

    Todo el mundo sabe que la vida no es sencilla, y la de un uploader no es una excepción.

    Tenemos un duro trabajo por delante, para ofrecer los partidos con la mejor calidad y velocidad posibles, al menos en mi caso.

    Ser uploader es para mí un hobby, con el que aprendes cosas nuevas, pero tambien pierdes un tiempo importante con tu familia, con los estudios, los amigos, la novia...
    Que es dificil de recuperar.

    Si la gente se descarga mis archivos es por algo; por algo que les que les gusta de tus aportes.
    Ese algo que les llama la atención y que les atrae a bajarse tus archivos.

    Tengo que decir que solo soy un estudiante que usa este hobby para costearse los estudios, que tienen sus gastos.

    Para subir con la mejor calidad y rapidez posible, gasto más de 1000€ al año entre conexiones a internet, servidores remotos y leech, sintonizadores de TV, Matrículas de estudios y Material estudiantil y fungible (Libros, Fotocopias, calculadoras graficas...) que necesito pagar para poder continuar mi vida cerca de la informática, y así, poder ser una gran persona con futuro; siendo Scout, ayudando a la gente sin pedir nada a cambio, usando los valores que nos enseño Sir Robert Baden Powell.

    Por eso os pido una pequeña colaboración, para poder continuar mi ruta en esta vida que continua a cada segundo que pasa, necesito una pequeña donación a mi cuenta Webmoney o que compreís una cuenta premium de Uploaded, usando cualquiera de mis links de descarga.

    Muchas gracias por vuestra comprensión y lectura.
    Saludos.

    Be Prepared

    All The people knows that the life is not easy, and an uploader's life is not an exception.

    We have a hard work in front of us to offer, the matches with the bes quality and speed possibles, at least in my case.

    To be an uploader is a hobby for me, which you learn new things, but you'r losing an important time of your life: with your family, your studies, your friends and girlfriend... that is difficult to get back again.

    If the people download my files is for something, for somethisng that like of your files.
    This something that attract to download your files.

    I need to say that I'm only a teenager who use this hobby to paid a half of his studies.

    To upload with the best speed and quality possible, I spent more thane 1000€ (1200$) between internet broadband, leech and remote servers, TV Tuners, school tuitions, and school supplies (Books, Fotocopies, Graphic Calculators...) that I need to pay to keep continue my life near to the informatics, to being a great person withi a brilliant future; using the Scouting values, helpinh all the people without getting anything in return; like Sir Robert Baden Powell.

    For That, you can help me donating a bit of money on my WebMoney Account or buying a Uploaded premium account using one of my download links.

    Best Regards and thanks to read this letter.

    Be Prepare


    Quote Originally Posted by NbaMagicMoments View Post
    NBA Finals 2013 - Game 7
    San Antonio Spurs @ Miami Heat

    Code:
    Spanish - MKV - 1,99Gb


    Links Mega

    1st quarter:
    http://adf.ly/Qt7VZ
    http://adf.ly/Qt7Yx

    2nd quarter:
    http://adf.ly/Qt7b8
    http://adf.ly/Qt7d4

    3rd quarter:
    http://adf.ly/QxGoP
    http://adf.ly/Qz2XZ

    4th quarter:

    http://adf.ly/R2GSN
    http://adf.ly/R2GZg
    http://adf.ly/R2Gft

    ENGLISH:

    NBA Finals 2013, Game #7: San Antonio Spurs vs. Miami Heat [2100 kbps], 6-20-2013, courtesy of Sky Sports 1 HD. Links below:











    Commentary: English
    File Format: FLV
    Resolution: 1280 X 720
    Total Size: 2934 MB

    1st Quarter:

    http://adf.ly/QrBEM

    2nd Quarter:

    http://adf.ly/QrGtK

    3rd Quarter:

    http://adf.ly/QrLSl

    4th Quarterw/ Post-Game Interviews, Bill Russell NBA Finals MVP Award & Larry O'Brien NBA Championship Trophy Presentations:

    http://adf.ly/QrTzQ

    Overtime, if necessary:
     

    ---------------


    Enjoy Everyone!!!

    Wigan





    Quote Originally Posted by kclayman View Post
    NBA 2013 Finals - Game 7
    San Antonio Spurs vs Miami Heat


    2013.06.20 - 21:00 ET






    Code:
    Language............: English
    Ripper..............: Reborn4HD
    Size................: 5.30 GB
    Format..............: mkv
    Resolution..........: 1280x720
    Video...............: H.264, 4500 Kbps @ 59.94 fps
    Audio...............: AAC, 128 Kbps, 44.1 KHz, 2 channels
    Release Note........: Player Introduction and Championship Trophy Presentation Included.




    Code:
    http://uploaded.net/file/ruyzh5ih/NBA.2013.Finals.G7.Spurs.vs.Heat.720p.ilprip.60fps.x264-Reborn4HD.mkv.part1.rar
    http://uploaded.net/file/xdf379x9/NBA.2013.Finals.G7.Spurs.vs.Heat.720p.ilprip.60fps.x264-Reborn4HD.mkv.part2.rar
     
    or
     
    http://rapidstation.com/5s8axrqs784t/NBA.2013.Finals.G7.Spurs.vs.Heat.720p.ilprip.60fps.x264-Reborn4HD.mkv.html



    Code:
    http://uploaded.net/file/vqbykay1/NBA.2013.Finals.G7.Spurs.vs.Heat.720p.ilprip.60fps.x264-Reborn4HD-1.mkv
    http://uploaded.net/file/yzkneems/NBA.2013.Finals.G7.Spurs.vs.Heat.720p.ilprip.60fps.x264-Reborn4HD-2.mkv
    http://uploaded.net/file/wj6aciyi/NBA.2013.Finals.G7.Spurs.vs.Heat.720p.ilprip.60fps.x264-Reborn4HD-3.mkv
    http://uploaded.net/file/34sh9fmf/NBA.2013.Finals.G7.Spurs.vs.Heat.720p.ilprip.60fps.x264-Reborn4HD-4.mkv
     
    or
     
    http://rapidstation.com/aja9c12io2dp/NBA.2013.Finals.G7.Spurs.vs.Heat.720p.ilprip.60fps.x264-Reborn4HD-1.mkv.html
    http://rapidstation.com/fudz9tv7luhc/NBA.2013.Finals.G7.Spurs.vs.Heat.720p.ilprip.60fps.x264-Reborn4HD-2.mkv.html
    http://rapidstation.com/ix3qkbk3veks/NBA.2013.Finals.G7.Spurs.vs.Heat.720p.ilprip.60fps.x264-Reborn4HD-3.mkv.html
    http://rapidstation.com/asz0j2giebir/NBA.2013.Finals.G7.Spurs.vs.Heat.720p.ilprip.60fps.x264-Reborn4HD-4.mkv.html
    Extra time if any
     

    if there is any, it is included in 4th quarter.



    ==========================================







    NBA 2013 Finals - Game 7
    San Antonio Spurs vs Miami Heat


    2013.06.20 - 21:00 ET






    Code:
    Language............: English
    Ripper..............: Reborn4HD
    Size................: 3.44 GB
    Format..............: mkv
    Resolution..........: 1280x720
    Video...............: H.264, 3000 Kbps @ 29.97 fps
    Audio...............: AAC, 128 Kbps, 44.1 KHz, 2 channels
    Release Note........: Player Introduction and Championship Trophy Presentation Included.




    Code:
    http://uploaded.net/file/ibod4d62/NBA.2013.Finals.G7.Spurs.vs.Heat.720p.ilprip.30fps.x264-Reborn4HD.mkv.rar
     
    or
     
    http://rapidstation.com/dwbq808w2nny/NBA.2013.Finals.G7.Spurs.vs.Heat.720p.ilprip.30fps.x264-Reborn4HD.mkv.rar.html



    Code:
    http://uploaded.net/file/5o9bdrsz/NBA.2013.Finals.G7.Spurs.vs.Heat.720p.ilprip.30fps.x264-Reborn4HD-1.mkv
    http://uploaded.net/file/9neydul5/NBA.2013.Finals.G7.Spurs.vs.Heat.720p.ilprip.30fps.x264-Reborn4HD-2.mkv
    http://uploaded.net/file/w5mfd7eo/NBA.2013.Finals.G7.Spurs.vs.Heat.720p.ilprip.30fps.x264-Reborn4HD-3.mkv
    http://uploaded.net/file/hv25refv/NBA.2013.Finals.G7.Spurs.vs.Heat.720p.ilprip.30fps.x264-Reborn4HD-4.mkv
     
    or
     
    http://rapidstation.com/y85h02y1r3qw/NBA.2013.Finals.G7.Spurs.vs.Heat.720p.ilprip.30fps.x264-Reborn4HD-1.mkv.html
    http://rapidstation.com/st54iqmjbo8v/NBA.2013.Finals.G7.Spurs.vs.Heat.720p.ilprip.30fps.x264-Reborn4HD-2.mkv.html
    http://rapidstation.com/igj9e85kfvax/NBA.2013.Finals.G7.Spurs.vs.Heat.720p.ilprip.30fps.x264-Reborn4HD-3.mkv.html
    http://rapidstation.com/3tqjsblx0esg/NBA.2013.Finals.G7.Spurs.vs.Heat.720p.ilprip.30fps.x264-Reborn4HD-4.mkv.html
    Extra time if any
     

    if there is any, it is included in 4th quarter.




    Enjoy and a simple thanks to me would be great!





    Quote Originally Posted by vamosmillo View Post




    English / TS / 480 x 288 / 300mb

    DepositFiles

    1º Cuarto:
    http://adf.ly/QrQoS

    2º Cuarto:
    http://adf.ly/QrQsX

    3º Cuarto:
    http://adf.ly/QrQuJ

    4º Cuarto:
    http://adf.ly/QrSOs




    Quote Originally Posted by yosinocoupe View Post








    Ingles/English | MKV | 1280x720 - 60 frames por segundo - Alta Definicion/High Definition | 4.77 Gb




    http://www43.zippyshare.com/v/94238096/file.html
    http://www.ziddu.com/download/224091...3.torrent.html

    Prorroga (si hubiese)
     
    Si hubiese, siempre estaria incluida en el unico link


    Ripper - m4rtyr

    Nota: Este torrent contiene los Games 1, 2, 3, 4, 5, 6 y 7. Si solo queremos descargar el Game 7, desmarcar los anteriores Games.







    Quote Originally Posted by yosinocoupe View Post








    Ingles/English | Avi | 1280x720 - Alta Definicion/High Definition (HDTVrip) | 2.96 Gb




    http://www14.zippyshare.com/v/34847096/file.html
    http://www.ziddu.com/download/224091...3.torrent.html

    Prorroga (si hubiese)
     
    Si hubiese, siempre estaria incluida en el unico link


    Ripper - waha

    Nota: Este torrent solo contiene el Game 7







    Quote Originally Posted by lizhengxiang View Post
    NBA Finals 2013, Game #7: San Antonio Spurs vs. Miami Heat 20-06-2013







    Format : mpeg
    File size : 3.06 GiB
    Source:CANAL+ HD
    Resolution:1280 X 720
    Language:English





    Quote Originally Posted by GreenGT View Post


    English
    Ripper - GreenGT
    Video: MPEG4 Video (H264) | 640x360 | 29.97 fps | 800kbps
    Audio: AAC | 44100Hz | stereo | 64kbps
    Size - 766 Mb



    Full Match in MP4 file:

    Code:
    http://ul.to/a0quo6vr


    Full Match in MP4 file:

    Code:
    http://junocloud.me/abw39i21d8zg




    Quote Originally Posted by GreenGT View Post


    English
    Ripper - GreenGT
    Video: MPEG4 Video (H264) | 960x540 | 29.97 fps | 1500kbps
    Audio: AAC | 44100Hz | stereo | 64kbps
    Size - 1.43 Gb



    Full Match in MP4 file:

    Code:
    http://ul.to/3wuzj5wy
    Full Match in RAR Archive

    Code:
    http://ul.to/lvpimbl5
    http://ul.to/71geq23x


    Full Match in RAR Archive

    Code:
    http://junocloud.me/16k9w8kyh518
    http://junocloud.me/9lpa17a72yry




    Quote Originally Posted by yosinocoupe View Post






    Ingles/English | MKV | 960x540 - Standar Definition | 1.42 Gb




    http://www43.zippyshare.com/v/77886608/file.html
    http://www.ziddu.com/download/224098...3.torrent.html

    Prorroga (si hubiese)
     
    Si hubiese, siempre estaria incluida en el unico link


    Ripper - Drax

    Nota: Este torrent contiene los Games 1, 2, 3, 4, 5, 6 y 7. Si solo queremos descargar el Game 7, desmarcar los anteriores Games.



    Quote Originally Posted by zenicaone View Post
    NBA 2013 The Finals Game 7 Heat vs Spurs 720p HDTV x264 Reborn4HD



    Code:
    Language............: English
    Ripper..............: Reborn4HD
    Size................: 5.30 GB
    Format..............: mkv
    Resolution..........: 1280x720
    Video...............: H.264, 4500 Kbps @ 59.94 fps
    Audio...............: AAC, 128 Kbps, 44.1 KHz, 2 channels
    Release Note........: Player Introduction and Championship Trophy Presentation Included.






    DOWNLOAD LINKS - All links are INTERCHANGEABLE

    Code:
    http://rapidgator.net/file/53fa5c70137985b5950fcfa4004c7425/NBA.2013.Finals.G7.Spurs.vs.Heat.720p.ilprip.60fps.x264-Reborn4HD-1.mkv.html
    http://rapidgator.net/file/4ea85f63d5895e916c2d4f8cb0dfc8d7/NBA.2013.Finals.G7.Spurs.vs.Heat.720p.ilprip.60fps.x264-Reborn4HD-2.mkv.html
    http://rapidgator.net/file/470c7ef5bc332ffe3ad25d8c45777917/NBA.2013.Finals.G7.Spurs.vs.Heat.720p.ilprip.60fps.x264-Reborn4HD-3.mkv.html
    http://rapidgator.net/file/716c661493888347b2263de1d223f766/NBA.2013.Finals.G7.Spurs.vs.Heat.720p.ilprip.60fps.x264-Reborn4HD-4.mkv.html
    Code:
    http://uploaded.net/file/inpo690e/NBA.2013.Finals.G7.Spurs.vs.Heat.720p.ilprip.60fps.x264-Reborn4HD-1.mkv
    http://uploaded.net/file/ydielqwj/NBA.2013.Finals.G7.Spurs.vs.Heat.720p.ilprip.60fps.x264-Reborn4HD-2.mkv
    http://uploaded.net/file/bdyaced8/NBA.2013.Finals.G7.Spurs.vs.Heat.720p.ilprip.60fps.x264-Reborn4HD-3.mkv
    http://uploaded.net/file/dyvj40uf/NBA.2013.Finals.G7.Spurs.vs.Heat.720p.ilprip.60fps.x264-Reborn4HD-4.mkv
    Code:
    http://bitshare.com/files/dx7ygduu/NBA.2013.Finals.G7.Spurs.vs.Heat.720p.ilprip.60fps.x264-Reborn4HD-1.mkv.html
    http://bitshare.com/files/fbr40cy8/NBA.2013.Finals.G7.Spurs.vs.Heat.720p.ilprip.60fps.x264-Reborn4HD-2.mkv.html
    http://bitshare.com/files/2kqca07e/NBA.2013.Finals.G7.Spurs.vs.Heat.720p.ilprip.60fps.x264-Reborn4HD-3.mkv.html
    http://bitshare.com/files/x8zhi0i3/NBA.2013.Finals.G7.Spurs.vs.Heat.720p.ilprip.60fps.x264-Reborn4HD-4.mkv.html
    Code:
    http://freakshare.com/files/weofzgrp/NBA.2013.Finals.G7.Spurs.vs.Heat.720p.ilprip.60fps.x264-Reborn4HD-1.mkv.html
    http://freakshare.com/files/i6b4dl3z/NBA.2013.Finals.G7.Spurs.vs.Heat.720p.ilprip.60fps.x264-Reborn4HD-2.mkv.html
    http://freakshare.com/files/9m67zwkm/NBA.2013.Finals.G7.Spurs.vs.Heat.720p.ilprip.60fps.x264-Reborn4HD-3.mkv.html
    http://freakshare.com/files/ad4lzvjj/NBA.2013.Finals.G7.Spurs.vs.Heat.720p.ilprip.60fps.x264-Reborn4HD-4.mkv.html
    Code:
    http://www.filefactory.com/file/79c8vag9oz8h/n/NBA.2013.Finals.G7.Spurs.vs.Heat.720p.ilprip.60fps.x264-Reborn4HD-1.mkv
    http://www.filefactory.com/file/4v20ii9oiig3/n/NBA.2013.Finals.G7.Spurs.vs.Heat.720p.ilprip.60fps.x264-Reborn4HD-2.mkv
    http://www.filefactory.com/file/3eerxuf6a0vd/n/NBA.2013.Finals.G7.Spurs.vs.Heat.720p.ilprip.60fps.x264-Reborn4HD-3.mkv
    http://www.filefactory.com/file/64o3d9dcv4q1/n/NBA.2013.Finals.G7.Spurs.vs.Heat.720p.ilprip.60fps.x264-Reborn4HD-4.mkv
    Code:
    http://turbobit.net/af9j2nlsf2c8/NBA.2013.Finals.G7.Spurs.vs.Heat.720p.ilprip.60fps.x264-Reborn4HD-1.mkv.html
    http://turbobit.net/efbdd7zdkct1/NBA.2013.Finals.G7.Spurs.vs.Heat.720p.ilprip.60fps.x264-Reborn4HD-2.mkv.html
    http://turbobit.net/ok065z4ctip2/NBA.2013.Finals.G7.Spurs.vs.Heat.720p.ilprip.60fps.x264-Reborn4HD-3.mkv.html
    http://turbobit.net/leltdi5brdca/NBA.2013.Finals.G7.Spurs.vs.Heat.720p.ilprip.60fps.x264-Reborn4HD-4.mkv.html
    Code:
    http://extabit.com/file/2b3w5mcofra43/NBA.2013.Finals.G7.Spurs.vs.Heat.720p.ilprip.60fps.x264-Reborn4HD-1.mkv
    http://extabit.com/file/2b3w5mcofra2b/NBA.2013.Finals.G7.Spurs.vs.Heat.720p.ilprip.60fps.x264-Reborn4HD-2.mkv
    http://extabit.com/file/2b3w5mcofra0z/NBA.2013.Finals.G7.Spurs.vs.Heat.720p.ilprip.60fps.x264-Reborn4HD-3.mkv
    http://extabit.com/file/2b3w5mcofqxf7/NBA.2013.Finals.G7.Spurs.vs.Heat.720p.ilprip.60fps.x264-Reborn4HD-4.mkv
    Code:
    http://www.netload.in/dateiTkVWJykDqx/NBA.2013.Finals.G7.Spurs.vs.Heat.720p.ilprip.60fps.x264-Reborn4HD-1.mkv.htm
    http://www.netload.in/dateiexDhzOowzt/NBA.2013.Finals.G7.Spurs.vs.Heat.720p.ilprip.60fps.x264-Reborn4HD-2.mkv.htm
    http://www.netload.in/dateiEj5zT6e0BN/NBA.2013.Finals.G7.Spurs.vs.Heat.720p.ilprip.60fps.x264-Reborn4HD-3.mkv.htm
    http://www.netload.in/dateiG2WvYCcRoN/NBA.2013.Finals.G7.Spurs.vs.Heat.720p.ilprip.60fps.x264-Reborn4HD-4.mkv.htm
    Code:
    http://u18941871.letitbit.net/download/11807.19ae96033ef208fbab07392ee740/NBA.2013.Finals.G7.Spurs.vs.Heat.720p.ilprip.60fps.x264-Reborn4HD-1.mkv.html
    http://u18941871.letitbit.net/download/76265.719950046068f66bbb7b917b5aaa/NBA.2013.Finals.G7.Spurs.vs.Heat.720p.ilprip.60fps.x264-Reborn4HD-2.mkv.html
    http://u18941871.letitbit.net/download/18164.168abe89aaa54807c2f527f40e48/NBA.2013.Finals.G7.Spurs.vs.Heat.720p.ilprip.60fps.x264-Reborn4HD-3.mkv.html
    http://u18941871.letitbit.net/download/65302.6af06928f113bdf03404ca0dabb4/NBA.2013.Finals.G7.Spurs.vs.Heat.720p.ilprip.60fps.x264-Reborn4HD-4.mkv.html



    RUSSIAN:

    Quote Originally Posted by mokotronk View Post


    NBA Finals Game 7: San Antonio Spurs VS Miami Heat





    Ruso / Online / SD-HD


    http://vk.com/video_ext.php?oid=8434...c192e2d76&hd=1


    RADIO:

    Quote Originally Posted by rubemar21 View Post




    SAN ANTONIO SPURS vs MIAMI HEAT
    NBA FINALS
    GAME 7
    Code:
    (20/06/2013) - ESPAÑOL (sólo audio) Narración: Manu Corraliza Comentarios: Oscar Périz, David Uña


    Code:
    (20/06/2013) - CATALÁN (sólo audio) Narración: Nino Vàzquez Comentarios: Josep Navarro
    Last edited by yosinocoupe; 24th June 2013 at 20:46.

  2. The Following 56 Users Say Thank You to wigan88 For This Useful Post:

    توما (21st June 2013), 33montilla (21st June 2013), acolyte (21st June 2013), advilad (21st June 2013), ageapr (21st June 2013), Alterfines (22nd June 2013), an-arhos (21st June 2013), angelmonroy (21st June 2013), ariasnov (21st June 2013), asteeruud (21st June 2013), auman23 (21st June 2013), backstreet (21st June 2013), BallDontLie (10th January 2014), bt67s (21st June 2013), dani188 (21st June 2013), david25cm (21st June 2013), djnewmoneyuk (21st June 2013), el_edu1 (21st June 2013), FernandoRedondo555 (21st June 2013), gunga-din (21st June 2013), Ignaciolm5 (21st June 2013), ikerkasiyas (21st June 2013), JRFPTARRA (21st June 2013), juanitolocke (21st June 2013), jurasros (21st June 2013), kclayman (21st June 2013), lechugui (21st June 2013), looneytune (21st June 2013), marjancek (21st June 2013), mokotronk (21st June 2013), pasvihe (21st June 2013), peternak77 (21st June 2013), riverinyo (21st June 2013), sadscient (21st June 2013), skyskyblue (21st June 2013), solchante (21st June 2013), specrumm (21st June 2013), stevemetal (21st June 2013), stevenage (21st June 2013), texastexas (21st June 2013), theghostcavalier (21st June 2013), toei (21st June 2013), tophat (21st June 2013), twofor (21st June 2013), utep (21st June 2013), valenciaocho (21st June 2013), vituko (21st June 2013), wemble (21st June 2013), westend (21st June 2013), yanis99 (21st June 2013), yeovil (21st June 2013), yoohoo (21st June 2013), yyakima (21st June 2013), zenicaone (21st June 2013), zestyy (21st June 2013), zoozoo (21st June 2013)

  3. #2
    Senior Member Crack kclayman's Avatar
    Join Date
    Oct 2010
    Posts
    9,450
    Thanks
    776
    Thanked 13,392 Times in 5,505 Posts

    Wink NBA 2013 Finals - Game 7: San Antonio Spurs @ Miami Heat (2013.06.20)

    NBA 2013 Finals - Game 7
    San Antonio Spurs vs Miami Heat


    2013.06.20 - 21:00 ET






    Code:
    Language............: English
    Ripper..............: Reborn4HD
    Size................: 5.30 GB
    Format..............: mkv
    Resolution..........: 1280x720
    Video...............: H.264, 4500 Kbps @ 59.94 fps
    Audio...............: AAC, 128 Kbps, 44.1 KHz, 2 channels
    Release Note........: Player Introduction and Championship Trophy Presentation Included.




    Code:
    http://uploaded.net/file/ruyzh5ih/NBA.2013.Finals.G7.Spurs.vs.Heat.720p.ilprip.60fps.x264-Reborn4HD.mkv.part1.rar
    http://uploaded.net/file/xdf379x9/NBA.2013.Finals.G7.Spurs.vs.Heat.720p.ilprip.60fps.x264-Reborn4HD.mkv.part2.rar
     
    or
     
    http://rapidstation.com/5s8axrqs784t/NBA.2013.Finals.G7.Spurs.vs.Heat.720p.ilprip.60fps.x264-Reborn4HD.mkv.html



    Code:
    http://uploaded.net/file/vqbykay1/NBA.2013.Finals.G7.Spurs.vs.Heat.720p.ilprip.60fps.x264-Reborn4HD-1.mkv
    http://uploaded.net/file/yzkneems/NBA.2013.Finals.G7.Spurs.vs.Heat.720p.ilprip.60fps.x264-Reborn4HD-2.mkv
    http://uploaded.net/file/wj6aciyi/NBA.2013.Finals.G7.Spurs.vs.Heat.720p.ilprip.60fps.x264-Reborn4HD-3.mkv
    http://uploaded.net/file/34sh9fmf/NBA.2013.Finals.G7.Spurs.vs.Heat.720p.ilprip.60fps.x264-Reborn4HD-4.mkv
     
    or
     
    http://rapidstation.com/aja9c12io2dp/NBA.2013.Finals.G7.Spurs.vs.Heat.720p.ilprip.60fps.x264-Reborn4HD-1.mkv.html
    http://rapidstation.com/fudz9tv7luhc/NBA.2013.Finals.G7.Spurs.vs.Heat.720p.ilprip.60fps.x264-Reborn4HD-2.mkv.html
    http://rapidstation.com/ix3qkbk3veks/NBA.2013.Finals.G7.Spurs.vs.Heat.720p.ilprip.60fps.x264-Reborn4HD-3.mkv.html
    http://rapidstation.com/asz0j2giebir/NBA.2013.Finals.G7.Spurs.vs.Heat.720p.ilprip.60fps.x264-Reborn4HD-4.mkv.html
    Extra time if any
     

    if there is any, it is included in 4th quarter.



    ==========================================







    NBA 2013 Finals - Game 7
    San Antonio Spurs vs Miami Heat


    2013.06.20 - 21:00 ET






    Code:
    Language............: English
    Ripper..............: Reborn4HD
    Size................: 3.44 GB
    Format..............: mkv
    Resolution..........: 1280x720
    Video...............: H.264, 3000 Kbps @ 29.97 fps
    Audio...............: AAC, 128 Kbps, 44.1 KHz, 2 channels
    Release Note........: Player Introduction and Championship Trophy Presentation Included.




    Code:
    http://uploaded.net/file/ibod4d62/NBA.2013.Finals.G7.Spurs.vs.Heat.720p.ilprip.30fps.x264-Reborn4HD.mkv.rar
     
    or
     
    http://rapidstation.com/dwbq808w2nny/NBA.2013.Finals.G7.Spurs.vs.Heat.720p.ilprip.30fps.x264-Reborn4HD.mkv.rar.html



    Code:
    http://uploaded.net/file/5o9bdrsz/NBA.2013.Finals.G7.Spurs.vs.Heat.720p.ilprip.30fps.x264-Reborn4HD-1.mkv
    http://uploaded.net/file/9neydul5/NBA.2013.Finals.G7.Spurs.vs.Heat.720p.ilprip.30fps.x264-Reborn4HD-2.mkv
    http://uploaded.net/file/w5mfd7eo/NBA.2013.Finals.G7.Spurs.vs.Heat.720p.ilprip.30fps.x264-Reborn4HD-3.mkv
    http://uploaded.net/file/hv25refv/NBA.2013.Finals.G7.Spurs.vs.Heat.720p.ilprip.30fps.x264-Reborn4HD-4.mkv
     
    or
     
    http://rapidstation.com/y85h02y1r3qw/NBA.2013.Finals.G7.Spurs.vs.Heat.720p.ilprip.30fps.x264-Reborn4HD-1.mkv.html
    http://rapidstation.com/st54iqmjbo8v/NBA.2013.Finals.G7.Spurs.vs.Heat.720p.ilprip.30fps.x264-Reborn4HD-2.mkv.html
    http://rapidstation.com/igj9e85kfvax/NBA.2013.Finals.G7.Spurs.vs.Heat.720p.ilprip.30fps.x264-Reborn4HD-3.mkv.html
    http://rapidstation.com/3tqjsblx0esg/NBA.2013.Finals.G7.Spurs.vs.Heat.720p.ilprip.30fps.x264-Reborn4HD-4.mkv.html
    Extra time if any
     

    if there is any, it is included in 4th quarter.




    Enjoy and a simple thanks to me would be great!


  4. The Following 4 Users Say Thank You to kclayman For This Useful Post:

    el_edu1 (21st June 2013), jurasros (27th June 2013), theghostcavalier (21st June 2013), vituko (21st June 2013)

  5. #3
    Senior Member Balón de oro
    Join Date
    Mar 2010
    Posts
    11,034
    Thanks
    75
    Thanked 10,662 Times in 4,422 Posts
    720P:

    NBA Finals 2013, Game #7: San Antonio Spurs vs. Miami Heat 20-06-2013







    Format : mpeg
    File size : 2.54 GiB
    Source:CANAL+ HD
    Resolution:1280 X 720
    Language:Spanish


    400P:

    NBA Finals 2013, Game #7: San Antonio Spurs vs. Miami Heat 20-06-2013





    Format : mpeg
    File size : 1.84 GiB
    Source:CANAL+
    Resolution:720 X 406
    Language:Spanish

    Last edited by lizhengxiang; 21st June 2013 at 06:17.

  6. The Following 11 Users Say Thank You to lizhengxiang For This Useful Post:

    angelmonroy (21st June 2013), AORTONI (21st June 2013), david25cm (21st June 2013), elchapaf (21st June 2013), el_edu1 (21st June 2013), gramenaguer67 (21st June 2013), santyrg (21st June 2013), shaguy (21st June 2013), theghostcavalier (21st June 2013), vituko (21st June 2013), Yuhuuuu (21st June 2013)

  7. #4
    Senior Member Profesional Sagopa Kajmer's Avatar
    Join Date
    Oct 2012
    Posts
    2,624
    Thanks
    1,736
    Thanked 5,039 Times in 1,951 Posts

    NBA Finals - Game 7 - 20/06/2013
    Miami Heat v. San Antonio Spurs
    _________________________________________________

    Broadcast : Canal+ HD Language : Spanish Source : DVBRIP
    Encoding : video 2000 Kbps h.264 mpeg-ts 25fps - audio mp3 128kbps Duration : 02:00:00
    Size : ~2,5GB Release Type : HD 720p Full Match

    _________________________________________________




    1st Quarter

    http://ul.to/0hshui72

    2nd Quarter

    http://ul.to/aa45mxc1

    3rd Quarter

    http://ul.to/d9hmu8up

    4th Quarter

    http://ul.to/30ax4lcp

    Overtime (if any!) / Trophy Celebration




    _________________________________________________

    Broadcast : Canal+ HD Language : Spanish Source : DVBRIP
    Encoding : video 1500 Kbps h.264 mkv 25fps - audio mp3 128kbps Duration : 02:00:00
    Size : ~1,5GB Release Type : SD 400p Full Match

    _________________________________________________




    1st Quarter

    http://ul.to/0v62yf1j

    2nd Quarter

    http://ul.to/xsy8kciy

    3rd Quarter

    http://ul.to/4s8t4dl2

    4th Quarter

    http://ul.to/gwezrmcb

    Overtime (if any!) / Trophy Celebration




    _________________________________________________

    Broadcast : ESPN HD Language : English Source : DVBRIP
    Encoding : video 4000 Kbps h.264 mkv 60fps - audio AC3 384kbps Duration : 02:00:00
    Size : ~4,5GB Release Type : HD 720p Full Match

    _________________________________________________




    1st Half

    http://ul.to/9dfv332d

    2nd Half

    http://ul.to/px7czksf

    Overtime (if any!) / Trophy Celebration




    _________________________________________________

    Broadcast : ESPN HD Language : English Source : DVBRIP
    Encoding : video 1500 Kbps h.264 mkv 60fps - audio mp3 128kbps Duration : 02:00:00
    Size : ~1,5GB Release Type : SD 400p Full Match

    _________________________________________________




    1st Half

    http://ul.to/4wqt1tvm

    2nd Half

    http://ul.to/yh9xbf5x

    Overtime (if any!) / Trophy Celebration




    _________________________________________________

    Broadcast : ESPN HD Language : English Source : DVBRIP
    Encoding : video 3000 Kbps h.264 mkv 30fps - audio AC3 384kbps Duration : 02:00:00
    Size : ~3GB Release Type : HD 720p Full Match

    _________________________________________________




    1st Half

    http://ul.to/d0sv48sd

    2nd Half

    http://ul.to/bpccss2y

    Overtime (if any!) / Trophy Celebration




    _________________________________________________

    Broadcast : ESPN HD Language : English Source : DVBRIP
    Encoding : video 1500 Kbps h.264 mkv 30fps - audio mp3 128kbps Duration : 02:00:00
    Size : ~1,5GB Release Type : SD 400p Full Match

    _________________________________________________




    1st Half

    http://ul.to/6dykc7hp

    2nd Half

    http://ul.to/qavb0ya7

    Overtime (if any!) / Trophy Celebration

    Last edited by Sagopa Kajmer; 21st June 2013 at 11:39.

  8. The Following 9 Users Say Thank You to Sagopa Kajmer For This Useful Post:

    angelmonroy (21st June 2013), crucro (21st June 2013), el_edu1 (21st June 2013), GaLaTaMaN (21st June 2013), gramenaguer67 (21st June 2013), mezcolanza (21st June 2013), solchante (21st June 2013), theghostcavalier (21st June 2013), vituko (21st June 2013)

  9. #5
    Senior Member Profesional sppcctv's Avatar
    Join Date
    Apr 2012
    Location
    Albacete, España
    Posts
    2,895
    Thanks
    50
    Thanked 3,613 Times in 1,455 Posts





    Mediainfo:

    Code:
    General
    Unique ID                                : 173931675409661238003549049289857246446 (0x82DA05AE9079F6AEAB6C362F9A0B24EE)
    Complete name                            : N:\Torrents\NbaFnls G7 - SAS - MIA 1st 720p Esp.mkv
    Format                                   : Matroska
    Format version                           : Version 4 / Version 2
    File size                                : 1.52 GiB
    Duration                                 : 1h 50mn
    Overall bit rate                         : 1 963 Kbps
    Encoded date                             : UTC 2013-06-21 03:03:33
    Writing application                      : mkvmerge v6.2.0 ('Promised Land') built on Apr 28 2013 12:22:01
    Writing library                          : libebml v1.3.0 + libmatroska v1.4.0
    
    Video
    ID                                       : 1
    Format                                   : AVC
    Format/Info                              : Advanced Video Codec
    Format profile                           : High@L3.2
    Format settings, CABAC                   : Yes
    Format settings, ReFrames                : 4 frames
    Codec ID                                 : V_MPEG4/ISO/AVC
    Duration                                 : 1h 50mn
    Bit rate                                 : 1 904 Kbps
    Width                                    : 1 280 pixels
    Height                                   : 720 pixels
    Display aspect ratio                     : 16:9
    Frame rate                               : 25.000 fps
    Color space                              : YUV
    Chroma subsampling                       : 4:2:0
    Bit depth                                : 8 bits
    Scan type                                : Progressive
    Bits/(Pixel*Frame)                       : 0.083
    Stream size                              : 1.41 GiB (93%)
    Title                                    : By SppccTeam
    Writing library                          : x264 core 115 r2013 6fce39a
    Encoding settings                        : cabac=1 / ref=3 / deblock=1:0:0 / analyse=0x3:0x13 / me=hex / subme=7 / psy=1 / psy_rd=1.00:0.00 / mixed_ref=1 / me_range=16 / chroma_me=1 / trellis=1 / 8x8dct=1 / cqm=0 / deadzone=21,11 / fast_pskip=1 / chroma_qp_offset=-2 / threads=12 / sliced_threads=0 / nr=0 / decimate=1 / interlaced=0 / bluray_compat=0 / constrained_intra=0 / bframes=3 / b_pyramid=2 / b_adapt=1 / b_bias=0 / direct=1 / weightb=1 / open_gop=0 / weightp=2 / keyint=250 / keyint_min=25 / scenecut=40 / intra_refresh=0 / rc_lookahead=40 / rc=cbr / mbtree=1 / bitrate=1904 / ratetol=1.0 / qcomp=0.60 / qpmin=10 / qpmax=51 / qpstep=4 / vbv_maxrate=1904 / vbv_bufsize=19040 / nal_hrd=none / ip_ratio=1.40 / aq=1:1.00
    Language                                 : Spanish
    Default                                  : Yes
    Forced                                   : No
    
    Audio
    ID                                       : 2
    Format                                   : MPEG Audio
    Format version                           : Version 1
    Format profile                           : Layer 3
    Mode                                     : Joint stereo
    Mode extension                           : MS Stereo
    Codec ID                                 : A_MPEG/L3
    Codec ID/Hint                            : MP3
    Duration                                 : 1h 50mn
    Bit rate mode                            : Constant
    Bit rate                                 : 96.0 Kbps
    Channel(s)                               : 2 channels
    Sampling rate                            : 44.1 KHz
    Compression mode                         : Lossy
    Delay relative to video                  : 26ms
    Stream size                              : 76.0 MiB (5%)
    Title                                    : Canal+ Deportes HD
    Language                                 : Spanish
    Default                                  : Yes
    Forced                                   : No
    Descarga:

    720p:

    1ª Parte: (Previo, Q1 & Q2)
    Uploaded: http://ul.to/vjrfyp6w
    Depositfiles: http://dfiles.eu/files/duqxrs6wr

    2ª Parte: (Q3, Q4, NBA Trophy & Post-Partido)
    Uploaded: http://ul.to/nejaivbb
    Depositfiles: http://dfiles.eu/files/1rwdsgtxf

    Single Link
    Uploaded: http://ul.to/whlcmvhy
    Depositfiles: http://dfiles.eu/files/368c0gqqn

    1Gb Links:
    Uploaded:
    1. http://ul.to/0ez8ep99
    2. http://ul.to/06k3ylc2
    3. http://ul.to/7gqsaiur

    Depositfiles:
    1. http://dfiles.eu/files/rmaaedxzo
    2. http://dfiles.eu/files/vx5414rqn
    3. http://dfiles.eu/files/671gjzfzn

    TORRENT:
    Archivo.rar Con Imagenes de Muestra y el Torrent del Game 7

    Uploaded: http://ul.to/mjp95tfq
    Depositfiles: http://dfiles.eu/files/95gkuxjkt


    400p:

    1ª Parte: (Previo, Q1 & Q2)
    Uploaded: http://ul.to/hvo2f6pp
    Depositfiles: http://dfiles.eu/files/o70cb2e3n

    2ª Parte: (Q3, Q4, NBA Trophy & Post-Partido)
    Uploaded: http://ul.to/6l4wb8d3
    Depositfiles: http://dfiles.eu/files/qg5b43kpn

    Single Link
    Uploaded: http://ul.to/cdj3toto
    Depositfiles: http://dfiles.eu/files/lslemestp

    1Gb Links:
    Uploaded:
    1. http://ul.to/gx4yfmws
    2. http://ul.to/qoytge9o

    Depositfiles:
    1. http://dfiles.eu/files/2lqz0muum
    2. http://dfiles.eu/files/cm8azudq1

    TORRENT:
    Archivo.rar Con Imagenes de Muestra y el Torrent del Game 7

    Uploaded: http://ul.to/0m8w9ue3
    Depositfiles: http://dfiles.eu/files/ljo96ixg4

    OT If Possible:
     

    Added If Possible, on 2nd Half, between Q4 and NBA Trophy


    Si alguna vez te has bajado alguno de mis archivos, por favor, lee esta carta:
    If Sometimes you have downloade one of my files, pleade, read this letter:

     

    Todo el mundo sabe que la vida no es sencilla, y la de un uploader no es una excepción.

    Tenemos un duro trabajo por delante, para ofrecer los partidos con la mejor calidad y velocidad posibles, al menos en mi caso.

    Ser uploader es para mí un hobby, con el que aprendes cosas nuevas, pero tambien pierdes un tiempo importante con tu familia, con los estudios, los amigos, la novia...
    Que es dificil de recuperar.

    Si la gente se descarga mis archivos es por algo; por algo que les que les gusta de tus aportes.
    Ese algo que les llama la atención y que les atrae a bajarse tus archivos.

    Tengo que decir que solo soy un estudiante que usa este hobby para costearse los estudios, que tienen sus gastos.

    Para subir con la mejor calidad y rapidez posible, gasto más de 1000€ al año entre conexiones a internet, servidores remotos y leech, sintonizadores de TV, Matrículas de estudios y Material estudiantil y fungible (Libros, Fotocopias, calculadoras graficas...) que necesito pagar para poder continuar mi vida cerca de la informática, y así, poder ser una gran persona con futuro; siendo Scout, ayudando a la gente sin pedir nada a cambio, usando los valores que nos enseño Sir Robert Baden Powell.

    Por eso os pido una pequeña colaboración, para poder continuar mi ruta en esta vida que continua a cada segundo que pasa, necesito una pequeña donación a mi cuenta Webmoney o que compreís una cuenta premium de Uploaded, usando cualquiera de mis links de descarga.

    Muchas gracias por vuestra comprensión y lectura.
    Saludos.

    Be Prepared

    All The people knows that the life is not easy, and an uploader's life is not an exception.

    We have a hard work in front of us to offer, the matches with the bes quality and speed possibles, at least in my case.

    To be an uploader is a hobby for me, which you learn new things, but you'r losing an important time of your life: with your family, your studies, your friends and girlfriend... that is difficult to get back again.

    If the people download my files is for something, for somethisng that like of your files.
    This something that attract to download your files.

    I need to say that I'm only a teenager who use this hobby to paid a half of his studies.

    To upload with the best speed and quality possible, I spent more thane 1000€ (1200$) between internet broadband, leech and remote servers, TV Tuners, school tuitions, and school supplies (Books, Fotocopies, Graphic Calculators...) that I need to pay to keep continue my life near to the informatics, to being a great person withi a brilliant future; using the Scouting values, helpinh all the people without getting anything in return; like Sir Robert Baden Powell.

    For That, you can help me donating a bit of money on my WebMoney Account or buying a Uploaded premium account using one of my download links.

    Best Regards and thanks to read this letter.

    Be Prepare

    Last edited by sppcctv; 21st June 2013 at 07:17.
    Durante los dias 7 al 17 de Septiembre, si posteo, lo haré ebrio y/o con resaca. Es la "Feria de Albacete"
    During 7th to 17th of September, If I post, I will do drunk and/or with hangover. It's "Feria de Albacete" Time

    Si en alguno de mis Post se caen las Imagenes o los archivos, comunicalo por MP

    Register Free Or Buy A Premium Account On Uploaded HERE
    Registrate Gratis O Compra una Cuenta Premium de UploadedAQUI

  10. The Following 21 Users Say Thank You to sppcctv For This Useful Post:

    alejoparry (21st June 2013), angelmonroy (21st June 2013), blackobass (21st June 2013), Brees (21st June 2013), crucro (21st June 2013), DaRKTHeoRY (21st June 2013), djmlbp (21st June 2013), el_edu1 (21st June 2013), isans (21st June 2013), ivanalcala (21st June 2013), juanitolocke (21st June 2013), kris10011 (21st June 2013), Maragator (21st June 2013), peternak77 (21st June 2013), puchini81 (21st June 2013), shaguy (21st June 2013), spidermanel (21st June 2013), suciedad (21st June 2013), theghostcavalier (21st June 2013), vituko (21st June 2013), wasomen (21st June 2013)

  11. #6
    Senior Member Amateur
    Join Date
    Jan 2013
    Posts
    425
    Thanks
    40
    Thanked 479 Times in 219 Posts




    Canal+HD deport / espagnol / 2 000 KBYTES / 2 GB

    Links :
    P1
    http://adfoc.us/11992926719401
    P2
    http://adfoc.us/11992926744380
    P3
    http://adfoc.us/11992926750027
    P4
    http://adfoc.us/11992926746737
    Enjoy
    Last edited by tounsimido; 21st June 2013 at 07:33.

  12. The Following 8 Users Say Thank You to tounsimido For This Useful Post:

    33montilla (21st June 2013), angelmonroy (21st June 2013), gramenaguer67 (21st June 2013), kris10011 (21st June 2013), oM3GA-DeSTiNy (21st June 2013), solchante (21st June 2013), theghostcavalier (21st June 2013), vituko (21st June 2013)

  13. #7
    Senior Member Amateur
    Join Date
    Aug 2008
    Posts
    562
    Thanks
    4
    Thanked 607 Times in 263 Posts




    English / TS / 480 x 288 / 300mb

    DepositFiles

    1º Cuarto:
    http://adf.ly/QrQoS

    2º Cuarto:
    http://adf.ly/QrQsX

    3º Cuarto:
    http://adf.ly/QrQuJ

    4º Cuarto:
    http://adf.ly/QrSOs
    Last edited by vamosmillo; 21st June 2013 at 05:14.

  14. The Following 3 Users Say Thank You to vamosmillo For This Useful Post:

    solchante (21st June 2013), theghostcavalier (21st June 2013), vituko (21st June 2013)

  15. #8
    Moderator Balón de oro yosinocoupe's Avatar
    Join Date
    Oct 2009
    Posts
    25,221
    Thanks
    781
    Thanked 45,395 Times in 12,751 Posts








    Ingles/English | MKV | 1280x720 - 60 frames por segundo - Alta Definicion/High Definition | 4.77 Gb




    http://www43.zippyshare.com/v/94238096/file.html
    http://www.ziddu.com/download/224091...3.torrent.html

    Prorroga (si hubiese)
     
    Si hubiese, siempre estaria incluida en el unico link


    Ripper - m4rtyr

    Nota: Este torrent contiene los Games 1, 2, 3, 4, 5, 6 y 7. Si solo queremos descargar el Game 7, desmarcar los anteriores Games.




  16. The Following 31 Users Say Thank You to yosinocoupe For This Useful Post:

    33montilla (21st June 2013), AirXav (21st June 2013), Alterfines (22nd June 2013), angelmonroy (21st June 2013), antoniopastor (21st June 2013), apalacip (21st June 2013), blackobass (21st June 2013), born2live (21st June 2013), Gaby24 (21st June 2013), GalloMVP (21st June 2013), Gonzas (21st June 2013), jujomual (21st June 2013), kolza (21st June 2013), lordofthefrikis (21st June 2013), Magicalcolts (21st June 2013), medaro (21st June 2013), mtm440 (21st June 2013), nnuueevvoo13 (21st June 2013), Nowitzness (21st June 2013), Nyuszko (21st June 2013), piscopo (21st June 2013), SagitarioNegro (21st June 2013), solchante (21st June 2013), szkieletor (21st June 2013), theghostcavalier (21st June 2013), TheRadik (21st June 2013), tof47a (21st June 2013), tomroot (21st June 2013), tonys1 (21st June 2013), witness (21st June 2013), wongky (21st June 2013)

  17. #9
    Moderator Balón de oro yosinocoupe's Avatar
    Join Date
    Oct 2009
    Posts
    25,221
    Thanks
    781
    Thanked 45,395 Times in 12,751 Posts








    Ingles/English | Avi | 1280x720 - Alta Definicion/High Definition (HDTVrip) | 2.96 Gb




    http://www14.zippyshare.com/v/34847096/file.html
    http://www.ziddu.com/download/224091...3.torrent.html

    Prorroga (si hubiese)
     
    Si hubiese, siempre estaria incluida en el unico link


    Ripper - waha

    Nota: Este torrent solo contiene el Game 7




  18. The Following 18 Users Say Thank You to yosinocoupe For This Useful Post:

    33montilla (21st June 2013), an-arhos (21st June 2013), dennel (21st June 2013), errores (21st June 2013), GalloMVP (21st June 2013), Gonzas (21st June 2013), isans (21st June 2013), lordofthefrikis (21st June 2013), mezcolanza (21st June 2013), nnuueevvoo13 (21st June 2013), Panguna (21st June 2013), seat1271965 (21st June 2013), speedas (21st June 2013), szkieletor (21st June 2013), theghostcavalier (21st June 2013), vinceace15 (21st June 2013), vituko (21st June 2013), witness (21st June 2013)

  19. #10
    Senior Member Profesional
    Join Date
    Jun 2011
    Posts
    1,594
    Thanks
    3,162
    Thanked 182 Times in 174 Posts
    gracias por el partidoooooooo

Posting Permissions

  • You may not post new threads
  • You may not post replies
  • You may not post attachments
  • You may not edit your posts
  •