Page 2 of 3 FirstFirst 123 LastLast
Results 11 to 20 of 28

Thread: MOTOR: Formula 1 - GP Singapur - Carrera - 22/09/2013

Share |
  1. #11
    Senior Member Amateur
    Join Date
    Mar 2013
    Posts
    342
    Thanks
    18
    Thanked 162 Times in 114 Posts
    Formula 1 Singapore Grand Prix (22nd September 2013) PDTV XviD



    [align=center]Language : English
    Ripper : ?
    Size : 1.30 GB
    Format : AVI
    Video : MPEG-4 Visual at 1 205 Kbps, 704 x 400 (1.810) at 25.000 fps
    Audio : MPEG Audio at 128 Kbps, 2 channels, 48.0 KHz


    Race Only. Setanta Coverage (BBC).


    Hotfile
    part 1 http://31d5aa98.linkbucks.com
    part 2 http://78318fc8.linkbucks.com


    Uploaded
    part 1 http://21da1ae5.linkbucks.com
    part 2 http://d3b931dd.linkbucks.com



    All Links Are Interchangeable

  2. The Following 2 Users Say Thank You to akping_1 For This Useful Post:

    icaruslara (23rd September 2013), Melife (22nd September 2013)

  3. #12
    Senior Member Profesional danayalop's Avatar
    Join Date
    Apr 2009
    Posts
    1,251
    Thanks
    103
    Thanked 2,276 Times in 616 Posts
    Post #6 oK
    Si quieres contactar conmigo via twitter, @danayalop

    Para un buen funcionamiento de Media Player Classsic, debes "remuxear" el video con mkvmerge para evitar problemas. Descargable de aqui.

    Ya tenemos las primeras pruebas con x265. Aunque esta muy verde, alguien se imagina un partido con esta calidad en menos de 700Mb? El futuro esta aqui
    http://adfoc.us/10714039914791



  4. The Following User Says Thank You to danayalop For This Useful Post:

    icaruslara (23rd September 2013)

  5. #13
    Senior Member Profesional sppcctv's Avatar
    Join Date
    Apr 2012
    Location
    Albacete, España
    Posts
    2,649
    Thanks
    50
    Thanked 3,259 Times in 1,314 Posts





    Mediainfo:

    Code:
    General
    UniqueID/String                          : 224131482762261866611533776059865787695 (0xA89E274615FA2254BCB39B5D67D46D2F)
    Nombre completo                          : C:\Users\Public\Documents\Torrents\F1 2013 - R13 - Singapore Race 1080i Spa [SPPCCTEAM].mkv
    Formato                                  : Matroska
    Formato de la versión                    : Version 4 / Version 2
    Tamaño del archivo                       : 5,25GIB
    Duración                                 : 2h 28min.
    Tasa de bits total                       : 5 059Kbps
    Fecha de codificación                    : UTC 2013-09-22 15:57:13
    Aplicación de codifición                 : mkvmerge v6.0.0 ('Coming Up For Air') built on Jan 20 2013 09:52:00
    Librería de codificación                 : libebml v1.3.0 + libmatroska v1.4.0
    
    Video
    ID                                       : 1
    Formato                                  : AVC
    Formato/Info                             : Advanced Video Codec
    Formato del perfil                       : High@L4.0
    Ajustes del formato, CABAC               : Si
    Ajustes del formato, RefFrames           : 4marcos
    ID Códec                                 : V_MPEG4/ISO/AVC
    Tasa de bits                             : 4 767Kbps
    Ancho                                    : 1 920pixeles
    Alto                                     : 1 080pixeles
    Relación de aspecto                      : 16:9
    Modo de velocidad de cuadro              : Variable
    Velocidad de cuadro Original             : 25,000fps
    ColorSpace                               : YUV
    ChromaSubsampling                        : 4:2:0
    BitDepth/String                          : 8bits
    Tipo de exploración                      : MBAFF
    Orden de la exploración                  : Campo superior primero
    Título                                   : By SppccTeam
    Idioma                                   : Inglés
    Default                                  : Si
    Forced                                   : No
    colour_primaries                         : BT.709
    transfer_characteristics                 : BT.709
    matrix_coefficients                      : BT.709
    
    Audio
    ID                                       : 2
    Formato                                  : MPEG Audio
    Formato de la versión                    : Version 1
    Formato del perfil                       : Layer 2
    ID Códec                                 : A_MPEG/L2
    ID Códec/Pista                           : MP2
    Duración                                 : 2h 28min.
    Tipo de tasa de bits                     : Constante
    Tasa de bits                             : 192Kbps
    Canal(es)                                : 2canales
    Velocidad de muestreo                    : 48,0KHz
    Demora del video                         : 7ms
    Tamaño de pista                          : 204MB (4%)
    Título                                   : Antena 3 HD
    Idioma                                   : Español
    Default                                  : Si
    Forced                                   : No

    Descarga Torrent:
    Archivo.rar Con Imagenes de Muestra y el Torrent de la Carrera.

    Uploaded: http://ul.to/wlvqv3xu
    Depositfiles: http://dfiles.eu/files/4sz6ux5uo

    If You're SCOUT contact me on Private.
    Si eres SCOUT Contacta conmigo en Privado

    Si en alguno de mis Post se caen las Imagenes o los archivos, comunicalo por MP

    Register Free Or Buy A Premium Account On Uploaded HERE
    Registrate Gratis O Compra una Cuenta Premium de UploadedAQUI

  6. The Following 4 Users Say Thank You to sppcctv For This Useful Post:

    Ender88 (22nd September 2013), icaruslara (23rd September 2013), ventiladorjapa (22nd September 2013), X-Tremeclock (22nd September 2013)

  7. #14
    Senior Member Profesional sppcctv's Avatar
    Join Date
    Apr 2012
    Location
    Albacete, España
    Posts
    2,649
    Thanks
    50
    Thanked 3,259 Times in 1,314 Posts





    Mediainfo:
    Code:
    General
    Unique ID                                : 190477415603400020194683243433562897431 (0x8F4C9DA7F3F20F6CAEBA06E46EEA7C17)
    Complete name                            : N:\Convertidos\F1 2013 - R13 - Singapore Race 400p Eng [SPPCCTEAM].mkv
    Format                                   : Matroska
    Format version                           : Version 4 / Version 2
    File size                                : 1.48 GiB
    Duration                                 : 2h 39mn
    Overall bit rate                         : 1 329 Kbps
    Encoded date                             : UTC 2013-09-22 16:23:01
    Writing application                      : mkvmerge v6.2.0 ('Promised Land') built on Apr 28 2013 12:22:01
    Writing library                          : libebml v1.3.0 + libmatroska v1.4.0
    
    Video
    ID                                       : 1
    Format                                   : AVC
    Format/Info                              : Advanced Video Codec
    Format profile                           : Main@L3.0
    Format settings, CABAC                   : Yes
    Format settings, ReFrames                : 4 frames
    Codec ID                                 : V_MPEG4/ISO/AVC
    Duration                                 : 2h 39mn
    Bit rate                                 : 1 175 Kbps
    Width                                    : 704 pixels
    Height                                   : 400 pixels
    Display aspect ratio                     : 16:9
    Frame rate                               : 25.000 fps
    Color space                              : YUV
    Chroma subsampling                       : 4:2:0
    Bit depth                                : 8 bits
    Scan type                                : Progressive
    Bits/(Pixel*Frame)                       : 0.167
    Stream size                              : 1.31 GiB (88%)
    Title                                    : By SppccTeam
    Language                                 : English
    Default                                  : Yes
    Forced                                   : No
    Color primaries                          : BT.601-6 525, BT.1358 525, BT.1700 NTSC, SMPTE 170M
    Transfer characteristics                 : BT.709-5, BT.1361
    Matrix coefficients                      : BT.601-6 525, BT.1358 525, BT.1700 NTSC, SMPTE 170M
    
    Audio
    ID                                       : 2
    Format                                   : AC-3
    Format/Info                              : Audio Coding 3
    Mode extension                           : CM (complete main)
    Codec ID                                 : A_AC3
    Duration                                 : 2h 39mn
    Bit rate mode                            : Constant
    Bit rate                                 : 128 Kbps
    Channel(s)                               : 2 channels
    Channel positions                        : Front: L R
    Sampling rate                            : 44.1 KHz
    Bit depth                                : 16 bits
    Compression mode                         : Lossy
    Delay relative to video                  : 24ms
    Stream size                              : 146 MiB (10%)
    Title                                    : Sky Sports F1
    Language                                 : English
    Default                                  : Yes
    Forced                                   : No
    Download: (Include Post-Race)

    Uploaded: http://ul.to/uqc6kgu3
    Depositfiles: http://dfiles.eu/files/at80p206w

    If You're SCOUT contact me on Private.
    Si eres SCOUT Contacta conmigo en Privado

    Si en alguno de mis Post se caen las Imagenes o los archivos, comunicalo por MP

    Register Free Or Buy A Premium Account On Uploaded HERE
    Registrate Gratis O Compra una Cuenta Premium de UploadedAQUI

  8. The Following User Says Thank You to sppcctv For This Useful Post:

    icaruslara (23rd September 2013)

  9. #15
    Moderator Balón de oro mokotronk's Avatar
    Join Date
    Sep 2009
    Location
    Sevilla
    Posts
    14,102
    Thanks
    4,440
    Thanked 19,349 Times in 5,983 Posts


    FORMULA 1: GP Singapur - Clasificación
    (21/09/2013)



    Español / Antena3 / Online


    Previo
    http://adf.ly/WCoMg

    Carrera
    http://adf.ly/WCoQB



    ~ MALASOMBRA BROSS ~
    (Descargas NBA en Español y Cuarto Milenio)
    &
    ~ Cuarto Milenio descargas en Off-Topic ~

  10. The Following User Says Thank You to mokotronk For This Useful Post:

    icaruslara (23rd September 2013)

  11. #16
    Senior Member Profesional sppcctv's Avatar
    Join Date
    Apr 2012
    Location
    Albacete, España
    Posts
    2,649
    Thanks
    50
    Thanked 3,259 Times in 1,314 Posts





    Mediainfo:

    Code:
    General
    Unique ID                                : 241384673517203996562657728404221179923 (0xB598FF40EA89662EB7C8220CC751B813)
    Complete name                            : N:\Convertidos\F1 2013 - R13 - Singapore Race 720p Ita  [SPPCCTEAM].mkv
    Format                                   : Matroska
    Format version                           : Version 4 / Version 2
    File size                                : 3.30 GiB
    Duration                                 : 2h 59mn
    Overall bit rate                         : 2 628 Kbps
    Encoded date                             : UTC 2013-09-22 17:30:14
    Writing application                      : mkvmerge v6.2.0 ('Promised Land') built on Apr 28 2013 12:22:01
    Writing library                          : libebml v1.3.0 + libmatroska v1.4.0
    
    Video
    ID                                       : 1
    Format                                   : AVC
    Format/Info                              : Advanced Video Codec
    Format profile                           : Main@L3.1
    Format settings, CABAC                   : Yes
    Format settings, ReFrames                : 4 frames
    Codec ID                                 : V_MPEG4/ISO/AVC
    Duration                                 : 2h 59mn
    Bit rate                                 : 2 447 Kbps
    Width                                    : 1 280 pixels
    Height                                   : 720 pixels
    Display aspect ratio                     : 16:9
    Frame rate                               : 25.000 fps
    Color space                              : YUV
    Chroma subsampling                       : 4:2:0
    Bit depth                                : 8 bits
    Scan type                                : Progressive
    Bits/(Pixel*Frame)                       : 0.106
    Stream size                              : 3.08 GiB (93%)
    Title                                    : By SppccTeam
    Language                                 : English
    Default                                  : Yes
    Forced                                   : No
    Color primaries                          : BT.709-5, BT.1361, IEC 61966-2-4, SMPTE RP177
    Transfer characteristics                 : BT.709-5, BT.1361
    Matrix coefficients                      : BT.709-5, BT.1361, IEC 61966-2-4 709, SMPTE RP177
    
    Audio
    ID                                       : 2
    Format                                   : AC-3
    Format/Info                              : Audio Coding 3
    Mode extension                           : CM (complete main)
    Codec ID                                 : A_AC3
    Duration                                 : 2h 59mn
    Bit rate mode                            : Constant
    Bit rate                                 : 128 Kbps
    Channel(s)                               : 2 channels
    Channel positions                        : Front: L R
    Sampling rate                            : 44.1 KHz
    Bit depth                                : 16 bits
    Compression mode                         : Lossy
    Delay relative to video                  : 29ms
    Stream size                              : 165 MiB (5%)
    Title                                    : Sky Sport F1 HD
    Language                                 : Italian
    Default                                  : Yes
    Forced                                   : No
    Download: (Italian) (Include Post-Race)

    1Gb Links:
    Uploaded:
    1. http://ul.to/9ifrhcjg
    2. http://ul.to/h3bunsi1
    3. http://ul.to/elatagkj
    4. http://ul.to/oaic4eag

    Depositfiles:
    1. http://dfiles.eu/files/yrpwjtbsv
    2. http://dfiles.eu/files/hrklrfhi0
    3. http://dfiles.eu/files/27ga5or6v
    4. http://dfiles.eu/files/v9wlypfi5

    Last edited by sppcctv; 22nd September 2013 at 19:31.
    If You're SCOUT contact me on Private.
    Si eres SCOUT Contacta conmigo en Privado

    Si en alguno de mis Post se caen las Imagenes o los archivos, comunicalo por MP

    Register Free Or Buy A Premium Account On Uploaded HERE
    Registrate Gratis O Compra una Cuenta Premium de UploadedAQUI

  12. The Following User Says Thank You to sppcctv For This Useful Post:

    Melife (22nd September 2013)

  13. #17
    Member Principiante Gonzalost's Avatar
    Join Date
    Apr 2007
    Location
    Chile
    Posts
    39
    Thanks
    20
    Thanked 2 Times in 2 Posts
    muchas gracias x la carrera de Fox

  14. #18
    Senior Member Profesional sppcctv's Avatar
    Join Date
    Apr 2012
    Location
    Albacete, España
    Posts
    2,649
    Thanks
    50
    Thanked 3,259 Times in 1,314 Posts





    Mediainfo:
    Code:
    General
    Unique ID                                : 170772458147688619383283445360579950786 (0x8079943EBD3F5AA19AC7B5BEE215B8C2)
    Complete name                            : N:\Convertidos\F1 2013 - R13 - Singapore Race 720p Ger  [SPPCCTEAM].mkv
    Format                                   : Matroska
    Format version                           : Version 4 / Version 2
    File size                                : 2.83 GiB
    Duration                                 : 2h 33mn
    Overall bit rate                         : 2 634 Kbps
    Encoded date                             : UTC 2013-09-22 18:46:26
    Writing application                      : mkvmerge v6.2.0 ('Promised Land') built on Apr 28 2013 12:22:01
    Writing library                          : libebml v1.3.0 + libmatroska v1.4.0
    
    Video
    ID                                       : 1
    Format                                   : AVC
    Format/Info                              : Advanced Video Codec
    Format profile                           : Main@L3.1
    Format settings, CABAC                   : Yes
    Format settings, ReFrames                : 4 frames
    Codec ID                                 : V_MPEG4/ISO/AVC
    Duration                                 : 2h 33mn
    Bit rate                                 : 2 454 Kbps
    Width                                    : 1 280 pixels
    Height                                   : 720 pixels
    Display aspect ratio                     : 16:9
    Frame rate                               : 25.000 fps
    Color space                              : YUV
    Chroma subsampling                       : 4:2:0
    Bit depth                                : 8 bits
    Scan type                                : Progressive
    Bits/(Pixel*Frame)                       : 0.107
    Stream size                              : 2.63 GiB (93%)
    Title                                    : By SppccTeam
    Language                                 : English
    Default                                  : Yes
    Forced                                   : No
    Color primaries                          : BT.709-5, BT.1361, IEC 61966-2-4, SMPTE RP177
    Transfer characteristics                 : BT.709-5, BT.1361
    Matrix coefficients                      : BT.709-5, BT.1361, IEC 61966-2-4 709, SMPTE RP177
    
    Audio
    ID                                       : 2
    Format                                   : AC-3
    Format/Info                              : Audio Coding 3
    Mode extension                           : CM (complete main)
    Codec ID                                 : A_AC3
    Duration                                 : 2h 33mn
    Bit rate mode                            : Constant
    Bit rate                                 : 128 Kbps
    Channel(s)                               : 2 channels
    Channel positions                        : Front: L R
    Sampling rate                            : 44.1 KHz
    Bit depth                                : 16 bits
    Compression mode                         : Lossy
    Stream size                              : 141 MiB (5%)
    Title                                    : RTL HD
    Language                                 : German
    Default                                  : Yes
    Forced                                   : No
    Download: (German)

    1Gb Links:
    Uploaded:
    1. http://ul.to/ny3oz73r
    2. http://ul.to/3ayd7kll
    3. http://ul.to/jt2coocx

    Depositfiles:
    1. http://dfiles.eu/files/6lvet7rsk
    2. http://dfiles.eu/files/hz2wnz063
    3. http://dfiles.eu/files/kwvl3z39l

    If You're SCOUT contact me on Private.
    Si eres SCOUT Contacta conmigo en Privado

    Si en alguno de mis Post se caen las Imagenes o los archivos, comunicalo por MP

    Register Free Or Buy A Premium Account On Uploaded HERE
    Registrate Gratis O Compra una Cuenta Premium de UploadedAQUI

  15. #19
    Senior Member Profesional sppcctv's Avatar
    Join Date
    Apr 2012
    Location
    Albacete, España
    Posts
    2,649
    Thanks
    50
    Thanked 3,259 Times in 1,314 Posts





    Mediainfo:
    Code:
    General
    Unique ID                                : 222517631386845533977769997419746644122 (0xA7675641F9B3B4B28472A4D52EBB509A)
    Complete name                            : N:\Convertidos\F1 2013 - R13 - Singapore Race 400p Fr [SPPCCTEAM].mkv
    Format                                   : Matroska
    Format version                           : Version 4 / Version 2
    File size                                : 1.37 GiB
    Duration                                 : 2h 27mn
    Overall bit rate                         : 1 334 Kbps
    Encoded date                             : UTC 2013-09-22 19:12:52
    Writing application                      : mkvmerge v6.2.0 ('Promised Land') built on Apr 28 2013 12:22:01
    Writing library                          : libebml v1.3.0 + libmatroska v1.4.0
    
    Video
    ID                                       : 1
    Format                                   : AVC
    Format/Info                              : Advanced Video Codec
    Format profile                           : Main@L3.0
    Format settings, CABAC                   : Yes
    Format settings, ReFrames                : 4 frames
    Codec ID                                 : V_MPEG4/ISO/AVC
    Duration                                 : 2h 27mn
    Bit rate                                 : 1 180 Kbps
    Width                                    : 720 pixels
    Height                                   : 400 pixels
    Display aspect ratio                     : 16:9
    Frame rate                               : 25.000 fps
    Color space                              : YUV
    Chroma subsampling                       : 4:2:0
    Bit depth                                : 8 bits
    Scan type                                : Progressive
    Bits/(Pixel*Frame)                       : 0.164
    Stream size                              : 1.21 GiB (88%)
    Title                                    : By SppccTeam
    Language                                 : English
    Default                                  : Yes
    Forced                                   : No
    Color primaries                          : BT.601-6 525, BT.1358 525, BT.1700 NTSC, SMPTE 170M
    Transfer characteristics                 : BT.709-5, BT.1361
    Matrix coefficients                      : BT.601-6 525, BT.1358 525, BT.1700 NTSC, SMPTE 170M
    
    Audio
    ID                                       : 2
    Format                                   : AC-3
    Format/Info                              : Audio Coding 3
    Mode extension                           : CM (complete main)
    Codec ID                                 : A_AC3
    Duration                                 : 2h 27mn
    Bit rate mode                            : Constant
    Bit rate                                 : 128 Kbps
    Channel(s)                               : 2 channels
    Channel positions                        : Front: L R
    Sampling rate                            : 44.1 KHz
    Bit depth                                : 16 bits
    Compression mode                         : Lossy
    Delay relative to video                  : 6ms
    Stream size                              : 135 MiB (10%)
    Title                                    : Canal+
    Language                                 : French
    Default                                  : Yes
    Forced                                   : No

    Download: (French)

    Uploaded: http://ul.to/oe4t4olm
    Depositfiles: http://dfiles.eu/files/6m6f2nge3

    Last edited by sppcctv; 22nd September 2013 at 23:19.
    If You're SCOUT contact me on Private.
    Si eres SCOUT Contacta conmigo en Privado

    Si en alguno de mis Post se caen las Imagenes o los archivos, comunicalo por MP

    Register Free Or Buy A Premium Account On Uploaded HERE
    Registrate Gratis O Compra una Cuenta Premium de UploadedAQUI

  16. #20
    Senior Member Profesional sppcctv's Avatar
    Join Date
    Apr 2012
    Location
    Albacete, España
    Posts
    2,649
    Thanks
    50
    Thanked 3,259 Times in 1,314 Posts
    Todas Mis Subidas Completas
    If You're SCOUT contact me on Private.
    Si eres SCOUT Contacta conmigo en Privado

    Si en alguno de mis Post se caen las Imagenes o los archivos, comunicalo por MP

    Register Free Or Buy A Premium Account On Uploaded HERE
    Registrate Gratis O Compra una Cuenta Premium de UploadedAQUI

Posting Permissions

  • You may not post new threads
  • You may not post replies
  • You may not post attachments
  • You may not edit your posts
  •