Results 1 to 4 of 4

Thread: SOCHI 2014 - Speed Skating Men's 5000 m - 08/02/2014

Share |
  1. #1
    Senior Member Profesional Zidanekrisz's Avatar
    Join Date
    Sep 2013
    Posts
    1,065
    Thanks
    0
    Thanked 508 Times in 323 Posts

    SOCHI 2014 - Speed Skating Men's 5000 m - 08/02/2014



     

    Speed Skating Men's 5000 m FINAL

    Speed skating, or speedskating, is a competitive form of ice skating in which the competitors race each other in traveling a certain distance on skates. Types of speed skating are long track speed skating, short track speed skating, and marathon speed skating. In the Olympic Games, long-track speed skating is usually referred to as just "speed skating", while short-track speed skating is known as "short track".[1] The ISU, the governing body of both ice sports, refers to long track as "speed skating" and short track as "short track skating".

    Code:


    language: hungarian 5.1
    size: 1,29 GB
    format: 1080i
    bitrate: 6000kbps
    length: 29min





  2. #2
    Senior Member Profesional sppcctv's Avatar
    Join Date
    Apr 2012
    Location
    Albacete, España
    Posts
    2,649
    Thanks
    50
    Thanked 3,259 Times in 1,314 Posts





    Mediainfo:
    Code:
    General
    Unique ID                                : 218860315215706919710551826061384145571 (0xA4A6F6A60C5D2C508E22E5671852DAA3)
    Complete name                            : K:\Convertidos\Sochi 2014 - Speed Skating - Men's 5000m 720@50p Spa [SPPCCTEAM].mkv
    Format                                   : Matroska
    Format version                           : Version 4 / Version 2
    File size                                : 744 MiB
    Duration                                 : 40mn 24s
    Overall bit rate                         : 2 576 Kbps
    Encoded date                             : UTC 2014-02-08 23:28:49
    Writing application                      : mkvmerge v6.0.0 ('Coming Up For Air') built on Jan 20 2013 09:52:00
    Writing library                          : libebml v1.3.0 + libmatroska v1.4.0
    
    Video
    ID                                       : 1
    Format                                   : AVC
    Format/Info                              : Advanced Video Codec
    Format profile                           : High@L4.1
    Format settings, CABAC                   : Yes
    Format settings, ReFrames                : 4 frames
    Codec ID                                 : V_MPEG4/ISO/AVC
    Duration                                 : 40mn 24s
    Bit rate                                 : 2 396 Kbps
    Width                                    : 1 280 pixels
    Height                                   : 720 pixels
    Display aspect ratio                     : 16:9
    Frame rate mode                          : Constant
    Frame rate                               : 50.000 fps
    Color space                              : YUV
    Chroma subsampling                       : 4:2:0
    Bit depth                                : 8 bits
    Scan type                                : Progressive
    Bits/(Pixel*Frame)                       : 0.052
    Stream size                              : 693 MiB (93%)
    Title                                    : By SppccTeam
    Writing library                          : x264 core 130 r2273 b3065e6
    Encoding settings                        : cabac=1 / ref=1 / deblock=1:0:0 / analyse=0x3:0x113 / me=hex / subme=2 / psy=1 / psy_rd=1.00:0.00 / mixed_ref=0 / me_range=16 / chroma_me=1 / trellis=0 / 8x8dct=1 / cqm=0 / deadzone=21,11 / fast_pskip=1 / chroma_qp_offset=0 / threads=12 / lookahead_threads=4 / sliced_threads=0 / nr=0 / decimate=1 / interlaced=0 / bluray_compat=0 / constrained_intra=0 / bframes=3 / b_pyramid=2 / b_adapt=1 / b_bias=0 / direct=1 / weightb=1 / open_gop=0 / weightp=1 / keyint=500 / keyint_min=50 / scenecut=40 / intra_refresh=0 / rc_lookahead=10 / rc=crf / mbtree=1 / crf=23.0 / qcomp=0.60 / qpmin=0 / qpmax=69 / qpstep=4 / vbv_maxrate=62500 / vbv_bufsize=78125 / crf_max=0.0 / nal_hrd=none / ip_ratio=1.40 / aq=1:1.00
    Language                                 : English
    Default                                  : Yes
    Forced                                   : No
    Color primaries                          : BT.709
    Transfer characteristics                 : BT.709
    Matrix coefficients                      : BT.709
    
    Audio
    ID                                       : 2
    Format                                   : AC-3
    Format/Info                              : Audio Coding 3
    Format profile                           : Dolby Digital
    Mode extension                           : CM (complete main)
    Format settings, Endianness              : Big
    Codec ID                                 : A_AC3
    Duration                                 : 40mn 24s
    Bit rate mode                            : Constant
    Bit rate                                 : 128 Kbps
    Channel(s)                               : 2 channels
    Channel positions                        : Front: L R
    Sampling rate                            : 48.0 KHz
    Bit depth                                : 16 bits
    Compression mode                         : Lossy
    Stream size                              : 37.0 MiB (5%)
    Title                                    : Teledeporte HD
    Language                                 : Spanish
    Default                                  : Yes
    Forced                                   : No
    Descarga: (Castellano)

    Uploaded: http://ul.to/fw47hxqh
    Depositfiles: http://dfiles.eu/files/lad5onvbz

    Last edited by sppcctv; 8th February 2014 at 23:46.
    If You're SCOUT contact me on Private.
    Si eres SCOUT Contacta conmigo en Privado

    Si en alguno de mis Post se caen las Imagenes o los archivos, comunicalo por MP

    Register Free Or Buy A Premium Account On Uploaded HERE
    Registrate Gratis O Compra una Cuenta Premium de UploadedAQUI

  3. The Following User Says Thank You to sppcctv For This Useful Post:

    JAVSEG30 (9th February 2014)

  4. #3
    Senior Member Profesional sppcctv's Avatar
    Join Date
    Apr 2012
    Location
    Albacete, España
    Posts
    2,649
    Thanks
    50
    Thanked 3,259 Times in 1,314 Posts
    Upload Done
    If You're SCOUT contact me on Private.
    Si eres SCOUT Contacta conmigo en Privado

    Si en alguno de mis Post se caen las Imagenes o los archivos, comunicalo por MP

    Register Free Or Buy A Premium Account On Uploaded HERE
    Registrate Gratis O Compra una Cuenta Premium de UploadedAQUI

  5. #4

Posting Permissions

  • You may not post new threads
  • You may not post replies
  • You may not post attachments
  • You may not edit your posts
  •