Page 1 of 4 123 ... LastLast
Results 1 to 10 of 36

Thread: BALONCESTO - NBA: BBVA Compass Rising Stars Challenge 14-02-2014

Share |
  1. #1
    Senior Member Crack wigan88's Avatar
    Join Date
    May 2011
    Location
    Philadelphia, Pa., USA
    Posts
    9,331
    Thanks
    47
    Thanked 62,661 Times in 7,274 Posts

    BALONCESTO - NBA: BBVA Compass Rising Stars Challenge 14-02-2014

    SPANISH:

    2014 BBVA Compass Rising Stars Challenge: Team Hill vs. Team Webber [1100 kbps], 2-14-2014, courtesy of CANAL+ 1, with Satellite Feed provided by TNT. Links below:








    Commentary: Spanish
    File Format: FLV
    Resolution: 660 X 372
    Total Size: 724.00 MB

    1st Half:

    http://adf.ly/dbWSJ

    2nd Half:

    http://adf.ly/dbcaQ

    Overtime, if necessary:

     
    ---------------------------------------------------------------------


    Enjoy Everyone!!!

    Wigan



    ENGLISH:

    2014 BBVA Compass Rising Stars Challenge: Team Hill vs. Team Webber [2500 kbps], 2-14-2014, courtesy of TNT. Links below:








    Commentary: English
    File Format: FLV
    Resolution: 1280 X 720
    Total Size: 1636.10 MB

    1st Half:

    http://adf.ly/dbXQJ

    2nd Half:

    http://adf.ly/dbZkt

    http://adf.ly/dbcpB

    Overtime, if necessary:

     
    ---------------------------------------------------------------------


    Enjoy Everyone!!!

    Wigan



    SPANISH:


    Quote Originally Posted by sppcctv View Post





    Mediainfo:
    Code:
    General
    Unique ID                                : 241727078675854001714090872667658441361 (0xB5DAF1219C52D3B881569D30BD1AD291)
    Complete name                            : C:\Users\Igualada\Documents\NBA Rising Stars Challenge 1st 720p Spa [SPPCCTEAM].mkv
    Format                                   : Matroska
    Format version                           : Version 4 / Version 2
    File size                                : 1.05 GiB
    Duration                                 : 1h 7mn
    Overall bit rate                         : 2 244 Kbps
    Encoded date                             : UTC 2014-02-15 03:05:22
    Writing application                      : mkvmerge v6.0.0 ('Coming Up For Air') built on Jan 20 2013 09:52:00
    Writing library                          : libebml v1.3.0 + libmatroska v1.4.0
    
    Video
    ID                                       : 1
    Format                                   : AVC
    Format/Info                              : Advanced Video Codec
    Format profile                           : High@L3.1
    Format settings, CABAC                   : Yes
    Format settings, ReFrames                : 4 frames
    Codec ID                                 : V_MPEG4/ISO/AVC
    Duration                                 : 1h 7mn
    Bit rate                                 : 2 100 Kbps
    Width                                    : 1 280 pixels
    Height                                   : 720 pixels
    Display aspect ratio                     : 16:9
    Frame rate mode                          : Constant
    Frame rate                               : 25.000 fps
    Color space                              : YUV
    Chroma subsampling                       : 4:2:0
    Bit depth                                : 8 bits
    Scan type                                : Progressive
    Bits/(Pixel*Frame)                       : 0.091
    Stream size                              : 1 010 MiB (94%)
    Title                                    : By SppccTeam
    Writing library                          : x264 core 115 r2013 6fce39a
    Encoding settings                        : cabac=1 / ref=1 / deblock=1:0:0 / analyse=0x3:0x13 / me=hex / subme=1 / psy=1 / psy_rd=1.00:0.00 / mixed_ref=0 / me_range=16 / chroma_me=1 / trellis=1 / 8x8dct=1 / cqm=0 / deadzone=21,11 / fast_pskip=1 / chroma_qp_offset=0 / threads=12 / sliced_threads=0 / nr=0 / decimate=1 / interlaced=0 / bluray_compat=0 / constrained_intra=0 / bframes=3 / b_pyramid=2 / b_adapt=1 / b_bias=0 / direct=1 / weightb=1 / open_gop=0 / weightp=2 / keyint=50 / keyint_min=5 / scenecut=40 / intra_refresh=0 / rc_lookahead=40 / rc=abr / mbtree=1 / bitrate=2100 / ratetol=1.0 / qcomp=0.60 / qpmin=10 / qpmax=51 / qpstep=4 / vbv_maxrate=2200 / vbv_bufsize=3500 / nal_hrd=none / ip_ratio=1.40 / aq=1:1.00
    Language                                 : Spanish
    Default                                  : Yes
    Forced                                   : No
    
    Audio
    ID                                       : 2
    Format                                   : MPEG Audio
    Format version                           : Version 1
    Format profile                           : Layer 3
    Mode                                     : Joint stereo
    Mode extension                           : MS Stereo
    Codec ID                                 : A_MPEG/L3
    Codec ID/Hint                            : MP3
    Duration                                 : 1h 7mn
    Bit rate mode                            : Constant
    Bit rate                                 : 96.0 Kbps
    Channel(s)                               : 2 channels
    Sampling rate                            : 44.1 KHz
    Compression mode                         : Lossy
    Delay relative to video                  : 18ms
    Stream size                              : 46.1 MiB (4%)
    Title                                    : Canal+ 1 HD
    Language                                 : Spanish
    Default                                  : Yes
    Forced                                   : No
    Descarga:

    Torrent:
    Archivo.rar Con Imagenes De Muestra y El Torrent Del Partido

    Uploaded: http://ul.to/wktrpug8
    Depositfiles: http://dfiles.eu/files/jot1qhnvw

    Enlaces Directos:

    Partido Completo:
    Uploaded: http://ul.to/xjpdhl4v
    Depositfiles: http://dfiles.eu/files/wc2w0orpa

    Primera Parte:
    Uploaded: http://ul.to/77c22s9o
    Depositfiles: http://dfiles.eu/files/bm0b9xpd8

    Segunda Parte:
    Uploaded: http://ul.to/ibio2l2n
    Depositfiles: http://dfiles.eu/files/hx648sjlq

    Quote Originally Posted by lizhengxiang View Post
    BALONCESTO : NBA - BBVA Compass Rising Stars Challenge -14-02-2014





    Format : mpeg
    File size : 2.3GB
    Source:CANAL+ HD
    Resolution:1280 x 720
    Language::Spanish


    BALONCESTO : NBA - BBVA Compass Rising Stars Challenge -14-02-2014






    Format : mpeg
    File size : 700MB
    Source:BT Sport
    Resolution:720 x 576
    Language::English

    Code:
    
    
    Full Match:
    http://adf.ly/dbe9i
    http://adf.ly/dbeBM
    
    ET(if any):
    
     
    no
    Quote Originally Posted by mokotronk View Post
    Quote Originally Posted by mokotronk View Post
    Quote Originally Posted by mokotronk View Post
    Quote Originally Posted by mokotronk View Post


    TEAM HILL vs TEAM WEBBER
    (14/02/2014)







    Temporada: 2013/2014

    Fecha: 14/02/2014

    Tvrip: CANAL + DEPORTES

    Comentarios: CASTELLANO

    Video: MKV

    Resolución: 768 x 432

    Volumen archivo: 554 MB

    Ripeado por: MOKOTRONK




    1ª Parte
    http://adfoc.us/18556738389293

    2ª Parte
    http://adfoc.us/18556738389311

    Tiempo Extra
     
    Si hubiese estará añadido al 2ª Parte



    Quote Originally Posted by mazy View Post
    All Star 2.014 - NBA Rising Stars Challenge (Temporada 2013)







    Retransmisión de Canal+ HD
    Ripeado y subida: mazy
    Formato: avi
    Calidad: TDTrip
    Tamaño fotogramas: 1.280 x 720
    Bitrate: 2.100 kbps






    ENGLISH:

    Quote Originally Posted by sppcctv View Post





    Mediainfo:
    Code:
    General
    Unique ID                                : 176701813669871408836340995203999484880 (0x84EF880AF91330EABF429D5695104BD0)
    Complete name                            : C:\Users\Igualada\Documents\NBA Rising Stars Challenge 1st 576p Eng [SPPCCTEAM].mkv
    Format                                   : Matroska
    Format version                           : Version 4 / Version 2
    File size                                : 278 MiB
    Duration                                 : 58mn 18s
    Overall bit rate                         : 667 Kbps
    Encoded date                             : UTC 2014-02-15 03:10:28
    Writing application                      : mkvmerge v6.0.0 ('Coming Up For Air') built on Jan 20 2013 09:52:00
    Writing library                          : libebml v1.3.0 + libmatroska v1.4.0
    
    Video
    ID                                       : 1
    Format                                   : AVC
    Format/Info                              : Advanced Video Codec
    Format profile                           : High@L3.0
    Format settings, CABAC                   : Yes
    Format settings, ReFrames                : 4 frames
    Codec ID                                 : V_MPEG4/ISO/AVC
    Duration                                 : 58mn 18s
    Width                                    : 720 pixels
    Height                                   : 576 pixels
    Display aspect ratio                     : 16:9
    Frame rate mode                          : Constant
    Frame rate                               : 25.000 fps
    Standard                                 : PAL
    Color space                              : YUV
    Chroma subsampling                       : 4:2:0
    Bit depth                                : 8 bits
    Scan type                                : Progressive
    Title                                    : By SppccTeam
    Language                                 : English
    Default                                  : Yes
    Forced                                   : No
    
    Audio
    ID                                       : 2
    Format                                   : AAC
    Format/Info                              : Advanced Audio Codec
    Format profile                           : LC
    Codec ID                                 : A_AAC
    Duration                                 : 58mn 18s
    Channel(s)                               : 2 channels
    Channel positions                        : Front: L R
    Sampling rate                            : 48.0 KHz
    Compression mode                         : Lossy
    Delay relative to video                  : 10ms
    Title                                    : BT Sport 1
    Language                                 : English
    Default                                  : Yes
    Forced                                   : No
    Download:

    Torrent:
    .rar Archive With Sample Images and Match Torrent File.

    Uploaded: http://ul.to/mbyoku7i
    Depositfiles: http://dfiles.eu/files/1qbpr6gal

    Direct Links:

    Full Match:
    Uploaded: http://ul.to/pnk388m9
    Depositfiles: http://dfiles.eu/files/ibq8rw819

    First Half:
    Uploaded: http://ul.to/n2lio7qe
    Depositfiles: http://dfiles.eu/files/hy4sm64sk

    Second Half:
    Uploaded: http://ul.to/57eihia2
    Depositfiles: http://dfiles.eu/files/kkcjqqggb

    Quote Originally Posted by kclayman View Post
    NBA 2014 BBVA Rising Stars Challenge
    Team Hill vs Team Webber


    2014.02.14 - 21:00 ET












    Code:
    Language....: English
    Ripper......: Reborn4HD
    Size........: 3.52 GB
    Format......: mkv
    Resolution..: 1280x720
    Video.......: H.264, 4500 Kbps @ 59.94 fps
    Audio.......: AAC, 128 Kbps, 44.1 KHz, 2 channels
    Release Note: I recommend MPC / Potplayer / KMPlayer for best playback.




    Code:
    http://uploaded.net/file/09vzq2xv/NBA.2014.BBVA.Rising.Stars.Challenge.Team-Hill.vs.Team-Webber.720p.HDTV.60fps.264-Reborn4HD_1st-Half.mkv
    http://uploaded.net/file/lsizpua1/NBA.2014.BBVA.Rising.Stars.Challenge.Team-Hill.vs.Team-Webber.720p.HDTV.60fps.264-Reborn4HD_2nd-Half.mkv


    Enjoy and a simple thanks to me would be great!

    Quote Originally Posted by kclayman View Post
    NBA 2014 BBVA Rising Stars Challenge
    Team Hill vs Team Webber


    2014.02.14 - 21:00 ET












    Code:
    Language....: English
    Ripper......: Reborn4HD
    Size........: 2.26 GB
    Format......: mkv
    Resolution..: 1280x720
    Video.......: H.264, 3000 Kbps @ 29.97 fps
    Audio.......: AAC, 128 Kbps, 44.1 KHz, 2 channels
    Release Note: I recommend MPC / Potplayer / KMPlayer for best playback.




    Code:
    http://uploaded.net/file/o4x7fm21/NBA.2014.BBVA.Rising.Stars.Challenge.Team-Hill.vs.Team-Webber.720p.HDTV.30fps.264-Reborn4HD_1-Half.mkv
    http://uploaded.net/file/ddeoqoze/NBA.2014.BBVA.Rising.Stars.Challenge.Team-Hill.vs.Team-Webber.720p.HDTV.30fps.264-Reborn4HD_2nd-Half.mkv


    Enjoy and a simple thanks to me would be great!

    Quote Originally Posted by meliosolo View Post
    File size: 1,70Gb
    Length: 1:23:17
    Video codec: H.264, mkv container
    Frame rate: 30fps
    Resolution: 1280 x 720p
    Audio codec: AAC, 44.1khz, 2 channels
    Language: English
    Ripper: IlVarsh



    Torrent



     










    Quote Originally Posted by mokotronk View Post
    Quote Originally Posted by mokotronk View Post
    Quote Originally Posted by mokotronk View Post
    Quote Originally Posted by mokotronk View Post
    Quote Originally Posted by mokotronk View Post


    Inglés / MKV / 1280x720 / 2Gb

    VK ONLINE

    http://adfoc.us/18556738383192
    Quote Originally Posted by mokotronk View Post


    TEAM HILL vs TEAM WEBBER
    (14/02/2014)









    Temporada: 2013/2014

    Fecha: 14/02/2014

    Tvrip: TNT

    Comentarios: INGLÉS

    Video: MKV

    Resolución: 640 x 360

    Volumen archivo: 732 MB

    Ripeado por: MOKOTRONK




    1ª Parte
    http://adfoc.us/18556738394656

    2ª Parte
    http://adfoc.us/18556738398730

    Tiempo Extra
     
    Si hubiese estará añadido al 2ª Parte





    OTHER LANGUAGES:

    Quote Originally Posted by sppcctv View Post





    Mediainfo:
    Code:
    General
    Unique ID                                : 198037537958654810142128443367543351891 (0x94FCA477638D8E42A8D32878EDE52A53)
    Complete name                            : C:\Users\Igualada\Documents\NBA Rising Stars Challenge 1st 400p Fr [SPPCCTEAM].mkv
    Format                                   : Matroska
    Format version                           : Version 4 / Version 2
    File size                                : 658 MiB
    Duration                                 : 1h 9mn
    Overall bit rate                         : 1 319 Kbps
    Encoded date                             : UTC 2014-02-15 03:29:18
    Writing application                      : mkvmerge v6.0.0 ('Coming Up For Air') built on Jan 20 2013 09:52:00
    Writing library                          : libebml v1.3.0 + libmatroska v1.4.0
    
    Video
    ID                                       : 1
    Format                                   : AVC
    Format/Info                              : Advanced Video Codec
    Format profile                           : Main@L3.0
    Format settings, CABAC                   : Yes
    Format settings, ReFrames                : 4 frames
    Codec ID                                 : V_MPEG4/ISO/AVC
    Duration                                 : 1h 9mn
    Bit rate                                 : 1 165 Kbps
    Width                                    : 720 pixels
    Height                                   : 400 pixels
    Display aspect ratio                     : 16:9
    Frame rate mode                          : Constant
    Frame rate                               : 25.000 fps
    Color space                              : YUV
    Chroma subsampling                       : 4:2:0
    Bit depth                                : 8 bits
    Scan type                                : Progressive
    Bits/(Pixel*Frame)                       : 0.162
    Stream size                              : 581 MiB (88%)
    Title                                    : By SppccTeam
    Language                                 : English
    Default                                  : Yes
    Forced                                   : No
    Color primaries                          : BT.601 NTSC
    Transfer characteristics                 : BT.709
    Matrix coefficients                      : BT.601
    
    Audio
    ID                                       : 2
    Format                                   : AC-3
    Format/Info                              : Audio Coding 3
    Mode extension                           : CM (complete main)
    Format settings, Endianness              : Big
    Codec ID                                 : A_AC3
    Duration                                 : 1h 9mn
    Bit rate mode                            : Constant
    Bit rate                                 : 128 Kbps
    Channel(s)                               : 2 channels
    Channel positions                        : Front: L R
    Sampling rate                            : 44.1 KHz
    Bit depth                                : 16 bits
    Compression mode                         : Lossy
    Delay relative to video                  : 9ms
    Stream size                              : 63.8 MiB (10%)
    Title                                    : BeIN Sport 1
    Language                                 : French
    Default                                  : Yes
    Forced                                   : No
    Download:

    Torrent:
    .rar Archive With Sample Images and Match Torrent File.

    Uploaded: http://ul.to/cyss63lt
    Depositfiles: http://dfiles.eu/files/5zmilpe29

    Direct Links:

    Full Match:
    Uploaded: http://ul.to/25utdwwb
    Depositfiles: http://dfiles.eu/files/6rziaf76k

    First Half:
    Uploaded: http://ul.to/paju703z
    Depositfiles: http://dfiles.eu/files/lyonihm9v

    Second Half:
    Uploaded: http://ul.to/137wx9z7
    Depositfiles: http://dfiles.eu/files/76rkjmjm0

    Quote Originally Posted by mokotronk View Post


    Ruso / Inglés

    VK ONLINE

    http://adfoc.us/18556738383236
    Quote Originally Posted by mokotronk View Post


    RADIO:

    Quote Originally Posted by rubemar21 View Post





    TEAM HILL vs TEAM WEBBER
    RISING STARS CHALLENGE
    Code:
    (14/02/2014) - ESPAÑOL (sólo audio) Narración: Nino Vàzquez Comentarios: Saúl González, David Uña, Alejandro Huerta
    Last edited by wigan88; 16th February 2014 at 02:50.

  2. The Following 20 Users Say Thank You to wigan88 For This Useful Post:

    alf1706 (15th February 2014), an-arhos (15th February 2014), enriiic (15th February 2014), Floga (15th February 2014), foami7 (15th February 2014), Gaby24 (15th February 2014), Javierlllll (16th February 2014), juniortrack (15th February 2014), jurasros (15th February 2014), kclayman (15th February 2014), lucasrs (15th February 2014), mahmoodmj (16th February 2014), mcphineas (15th February 2014), mokotronk (15th February 2014), Monegrino135 (15th February 2014), Pim70 (15th February 2014), snaguer (15th February 2014), susonm (15th February 2014), TheRadik (15th February 2014), urll (15th February 2014)

  3. #2
    Senior Member Profesional sppcctv's Avatar
    Join Date
    Apr 2012
    Location
    Albacete, España
    Posts
    3,854
    Thanks
    63
    Thanked 5,681 Times in 2,137 Posts





    Mediainfo:
    Code:
    General
    Unique ID                                : 241727078675854001714090872667658441361 (0xB5DAF1219C52D3B881569D30BD1AD291)
    Complete name                            : C:\Users\Igualada\Documents\NBA Rising Stars Challenge 1st 720p Spa [SPPCCTEAM].mkv
    Format                                   : Matroska
    Format version                           : Version 4 / Version 2
    File size                                : 1.05 GiB
    Duration                                 : 1h 7mn
    Overall bit rate                         : 2 244 Kbps
    Encoded date                             : UTC 2014-02-15 03:05:22
    Writing application                      : mkvmerge v6.0.0 ('Coming Up For Air') built on Jan 20 2013 09:52:00
    Writing library                          : libebml v1.3.0 + libmatroska v1.4.0
    
    Video
    ID                                       : 1
    Format                                   : AVC
    Format/Info                              : Advanced Video Codec
    Format profile                           : High@L3.1
    Format settings, CABAC                   : Yes
    Format settings, ReFrames                : 4 frames
    Codec ID                                 : V_MPEG4/ISO/AVC
    Duration                                 : 1h 7mn
    Bit rate                                 : 2 100 Kbps
    Width                                    : 1 280 pixels
    Height                                   : 720 pixels
    Display aspect ratio                     : 16:9
    Frame rate mode                          : Constant
    Frame rate                               : 25.000 fps
    Color space                              : YUV
    Chroma subsampling                       : 4:2:0
    Bit depth                                : 8 bits
    Scan type                                : Progressive
    Bits/(Pixel*Frame)                       : 0.091
    Stream size                              : 1 010 MiB (94%)
    Title                                    : By SppccTeam
    Writing library                          : x264 core 115 r2013 6fce39a
    Encoding settings                        : cabac=1 / ref=1 / deblock=1:0:0 / analyse=0x3:0x13 / me=hex / subme=1 / psy=1 / psy_rd=1.00:0.00 / mixed_ref=0 / me_range=16 / chroma_me=1 / trellis=1 / 8x8dct=1 / cqm=0 / deadzone=21,11 / fast_pskip=1 / chroma_qp_offset=0 / threads=12 / sliced_threads=0 / nr=0 / decimate=1 / interlaced=0 / bluray_compat=0 / constrained_intra=0 / bframes=3 / b_pyramid=2 / b_adapt=1 / b_bias=0 / direct=1 / weightb=1 / open_gop=0 / weightp=2 / keyint=50 / keyint_min=5 / scenecut=40 / intra_refresh=0 / rc_lookahead=40 / rc=abr / mbtree=1 / bitrate=2100 / ratetol=1.0 / qcomp=0.60 / qpmin=10 / qpmax=51 / qpstep=4 / vbv_maxrate=2200 / vbv_bufsize=3500 / nal_hrd=none / ip_ratio=1.40 / aq=1:1.00
    Language                                 : Spanish
    Default                                  : Yes
    Forced                                   : No
    
    Audio
    ID                                       : 2
    Format                                   : MPEG Audio
    Format version                           : Version 1
    Format profile                           : Layer 3
    Mode                                     : Joint stereo
    Mode extension                           : MS Stereo
    Codec ID                                 : A_MPEG/L3
    Codec ID/Hint                            : MP3
    Duration                                 : 1h 7mn
    Bit rate mode                            : Constant
    Bit rate                                 : 96.0 Kbps
    Channel(s)                               : 2 channels
    Sampling rate                            : 44.1 KHz
    Compression mode                         : Lossy
    Delay relative to video                  : 18ms
    Stream size                              : 46.1 MiB (4%)
    Title                                    : Canal+ 1 HD
    Language                                 : Spanish
    Default                                  : Yes
    Forced                                   : No
    Descarga:

    Torrent:
    Archivo.rar Con Imagenes De Muestra y El Torrent Del Partido

    Uploaded: http://ul.to/wktrpug8
    Depositfiles: http://dfiles.eu/files/jot1qhnvw

    Enlaces Directos:

    Partido Completo:
    Uploaded: http://ul.to/xjpdhl4v
    Depositfiles: http://dfiles.eu/files/wc2w0orpa

    Primera Parte:
    Uploaded: http://ul.to/77c22s9o
    Depositfiles: http://dfiles.eu/files/bm0b9xpd8

    Segunda Parte:
    Uploaded: http://ul.to/ibio2l2n
    Depositfiles: http://dfiles.eu/files/hx648sjlq

    Last edited by sppcctv; 15th February 2014 at 06:45.
    Si por alguna casualidad RD cerrase, os podeís poner en contacto conmigo a través de Forocoches.

    Register Free Or Buy A Premium Account On Uploaded HERE
    Registrate Gratis O Compra una Cuenta Premium de Uploaded AQUI

    Eventos a la carta, Elige resolución, Idioma y Servidor del evento que quieras (Pasado o Futuro). MAS INFO AQUÍ.

  4. The Following 12 Users Say Thank You to sppcctv For This Useful Post:

    frai_10 (15th February 2014), hurley21_punk (15th February 2014), Javierlllll (16th February 2014), juniortrack (15th February 2014), mahmoodmj (16th February 2014), Nowitzness (15th February 2014), Poborsky (23rd February 2014), snaguer (15th February 2014), susonm (15th February 2014), TheRadik (15th February 2014), urll (15th February 2014), weeky (15th February 2014)

  5. #3
    Senior Member Balón de oro
    Join Date
    Mar 2010
    Posts
    27,172
    Thanks
    96
    Thanked 22,985 Times in 11,605 Posts
    BALONCESTO : NBA - BBVA Compass Rising Stars Challenge -14-02-2014





    Format : mpeg
    File size : 2.3GB
    Source:CANAL+ HD
    Resolution:1280 x 720
    Language::Spanish


    BALONCESTO : NBA - BBVA Compass Rising Stars Challenge -14-02-2014






    Format : mpeg
    File size : 700MB
    Source:BT Sport
    Resolution:720 x 576
    Language::English

    Code:
    
    
    Full Match:
    http://adf.ly/dbe9i
    http://adf.ly/dbeBM
    
    ET(if any):
    
     
    no
    Last edited by lizhengxiang; 15th February 2014 at 06:46.

  6. The Following 9 Users Say Thank You to lizhengxiang For This Useful Post:

    amk114 (15th February 2014), Javierlllll (16th February 2014), juniortrack (15th February 2014), jurasros (15th February 2014), mahmoodmj (16th February 2014), snaguer (15th February 2014), susonm (15th February 2014), TheRadik (15th February 2014), xiscof1 (13th April 2014)

  7. #4
    Senior Member Profesional sppcctv's Avatar
    Join Date
    Apr 2012
    Location
    Albacete, España
    Posts
    3,854
    Thanks
    63
    Thanked 5,681 Times in 2,137 Posts





    Mediainfo:
    Code:
    General
    Unique ID                                : 176701813669871408836340995203999484880 (0x84EF880AF91330EABF429D5695104BD0)
    Complete name                            : C:\Users\Igualada\Documents\NBA Rising Stars Challenge 1st 576p Eng [SPPCCTEAM].mkv
    Format                                   : Matroska
    Format version                           : Version 4 / Version 2
    File size                                : 278 MiB
    Duration                                 : 58mn 18s
    Overall bit rate                         : 667 Kbps
    Encoded date                             : UTC 2014-02-15 03:10:28
    Writing application                      : mkvmerge v6.0.0 ('Coming Up For Air') built on Jan 20 2013 09:52:00
    Writing library                          : libebml v1.3.0 + libmatroska v1.4.0
    
    Video
    ID                                       : 1
    Format                                   : AVC
    Format/Info                              : Advanced Video Codec
    Format profile                           : High@L3.0
    Format settings, CABAC                   : Yes
    Format settings, ReFrames                : 4 frames
    Codec ID                                 : V_MPEG4/ISO/AVC
    Duration                                 : 58mn 18s
    Width                                    : 720 pixels
    Height                                   : 576 pixels
    Display aspect ratio                     : 16:9
    Frame rate mode                          : Constant
    Frame rate                               : 25.000 fps
    Standard                                 : PAL
    Color space                              : YUV
    Chroma subsampling                       : 4:2:0
    Bit depth                                : 8 bits
    Scan type                                : Progressive
    Title                                    : By SppccTeam
    Language                                 : English
    Default                                  : Yes
    Forced                                   : No
    
    Audio
    ID                                       : 2
    Format                                   : AAC
    Format/Info                              : Advanced Audio Codec
    Format profile                           : LC
    Codec ID                                 : A_AAC
    Duration                                 : 58mn 18s
    Channel(s)                               : 2 channels
    Channel positions                        : Front: L R
    Sampling rate                            : 48.0 KHz
    Compression mode                         : Lossy
    Delay relative to video                  : 10ms
    Title                                    : BT Sport 1
    Language                                 : English
    Default                                  : Yes
    Forced                                   : No
    Download:

    Torrent:
    .rar Archive With Sample Images and Match Torrent File.

    Uploaded: http://ul.to/mbyoku7i
    Depositfiles: http://dfiles.eu/files/1qbpr6gal

    Direct Links:

    Full Match:
    Uploaded: http://ul.to/pnk388m9
    Depositfiles: http://dfiles.eu/files/ibq8rw819

    First Half:
    Uploaded: http://ul.to/n2lio7qe
    Depositfiles: http://dfiles.eu/files/hy4sm64sk

    Second Half:
    Uploaded: http://ul.to/57eihia2
    Depositfiles: http://dfiles.eu/files/kkcjqqggb

    Last edited by sppcctv; 15th February 2014 at 06:47.
    Si por alguna casualidad RD cerrase, os podeís poner en contacto conmigo a través de Forocoches.

    Register Free Or Buy A Premium Account On Uploaded HERE
    Registrate Gratis O Compra una Cuenta Premium de Uploaded AQUI

    Eventos a la carta, Elige resolución, Idioma y Servidor del evento que quieras (Pasado o Futuro). MAS INFO AQUÍ.

  8. The Following 2 Users Say Thank You to sppcctv For This Useful Post:

    Javierlllll (16th February 2014), mahmoodmj (16th February 2014)

  9. #5
    Senior Member Profesional sppcctv's Avatar
    Join Date
    Apr 2012
    Location
    Albacete, España
    Posts
    3,854
    Thanks
    63
    Thanked 5,681 Times in 2,137 Posts





    Mediainfo:
    Code:
    General
    Unique ID                                : 198037537958654810142128443367543351891 (0x94FCA477638D8E42A8D32878EDE52A53)
    Complete name                            : C:\Users\Igualada\Documents\NBA Rising Stars Challenge 1st 400p Fr [SPPCCTEAM].mkv
    Format                                   : Matroska
    Format version                           : Version 4 / Version 2
    File size                                : 658 MiB
    Duration                                 : 1h 9mn
    Overall bit rate                         : 1 319 Kbps
    Encoded date                             : UTC 2014-02-15 03:29:18
    Writing application                      : mkvmerge v6.0.0 ('Coming Up For Air') built on Jan 20 2013 09:52:00
    Writing library                          : libebml v1.3.0 + libmatroska v1.4.0
    
    Video
    ID                                       : 1
    Format                                   : AVC
    Format/Info                              : Advanced Video Codec
    Format profile                           : Main@L3.0
    Format settings, CABAC                   : Yes
    Format settings, ReFrames                : 4 frames
    Codec ID                                 : V_MPEG4/ISO/AVC
    Duration                                 : 1h 9mn
    Bit rate                                 : 1 165 Kbps
    Width                                    : 720 pixels
    Height                                   : 400 pixels
    Display aspect ratio                     : 16:9
    Frame rate mode                          : Constant
    Frame rate                               : 25.000 fps
    Color space                              : YUV
    Chroma subsampling                       : 4:2:0
    Bit depth                                : 8 bits
    Scan type                                : Progressive
    Bits/(Pixel*Frame)                       : 0.162
    Stream size                              : 581 MiB (88%)
    Title                                    : By SppccTeam
    Language                                 : English
    Default                                  : Yes
    Forced                                   : No
    Color primaries                          : BT.601 NTSC
    Transfer characteristics                 : BT.709
    Matrix coefficients                      : BT.601
    
    Audio
    ID                                       : 2
    Format                                   : AC-3
    Format/Info                              : Audio Coding 3
    Mode extension                           : CM (complete main)
    Format settings, Endianness              : Big
    Codec ID                                 : A_AC3
    Duration                                 : 1h 9mn
    Bit rate mode                            : Constant
    Bit rate                                 : 128 Kbps
    Channel(s)                               : 2 channels
    Channel positions                        : Front: L R
    Sampling rate                            : 44.1 KHz
    Bit depth                                : 16 bits
    Compression mode                         : Lossy
    Delay relative to video                  : 9ms
    Stream size                              : 63.8 MiB (10%)
    Title                                    : BeIN Sport 1
    Language                                 : French
    Default                                  : Yes
    Forced                                   : No
    Download:

    Torrent:
    .rar Archive With Sample Images and Match Torrent File.

    Uploaded: http://ul.to/cyss63lt
    Depositfiles: http://dfiles.eu/files/5zmilpe29

    Direct Links:

    Full Match:
    Uploaded: http://ul.to/25utdwwb
    Depositfiles: http://dfiles.eu/files/6rziaf76k

    First Half:
    Uploaded: http://ul.to/paju703z
    Depositfiles: http://dfiles.eu/files/lyonihm9v

    Second Half:
    Uploaded: http://ul.to/137wx9z7
    Depositfiles: http://dfiles.eu/files/76rkjmjm0

    Last edited by sppcctv; 15th February 2014 at 06:38.
    Si por alguna casualidad RD cerrase, os podeís poner en contacto conmigo a través de Forocoches.

    Register Free Or Buy A Premium Account On Uploaded HERE
    Registrate Gratis O Compra una Cuenta Premium de Uploaded AQUI

    Eventos a la carta, Elige resolución, Idioma y Servidor del evento que quieras (Pasado o Futuro). MAS INFO AQUÍ.

  10. The Following 2 Users Say Thank You to sppcctv For This Useful Post:

    Javierlllll (16th February 2014), mahmoodmj (16th February 2014)

  11. #6
    Senior Member Balón de oro
    Join Date
    Oct 2010
    Posts
    13,388
    Thanks
    807
    Thanked 17,759 Times in 7,607 Posts

    Wink NBA 2014 BBVA Rising Stars Challenge: Team Hill vs. Team Webber (2014.02.14)

    NBA 2014 BBVA Rising Stars Challenge
    Team Hill vs Team Webber


    2014.02.14 - 21:00 ET












    Code:
    Language....: English
    Ripper......: Reborn4HD
    Size........: 3.52 GB
    Format......: mkv
    Resolution..: 1280x720
    Video.......: H.264, 4500 Kbps @ 59.94 fps
    Audio.......: AAC, 128 Kbps, 44.1 KHz, 2 channels
    Release Note: I recommend MPC / Potplayer / KMPlayer for best playback.




    Code:
    http://uploaded.net/file/09vzq2xv/NBA.2014.BBVA.Rising.Stars.Challenge.Team-Hill.vs.Team-Webber.720p.HDTV.60fps.264-Reborn4HD_1st-Half.mkv
    http://uploaded.net/file/lsizpua1/NBA.2014.BBVA.Rising.Stars.Challenge.Team-Hill.vs.Team-Webber.720p.HDTV.60fps.264-Reborn4HD_2nd-Half.mkv


    Enjoy and a simple thanks to me would be great!

    Last edited by kclayman; 15th February 2014 at 13:42.

  12. The Following 7 Users Say Thank You to kclayman For This Useful Post:

    bahamontes (15th February 2014), Javierlllll (16th February 2014), javivivati (15th February 2014), jujomual (15th February 2014), Loris14 (15th February 2014), mahmoodmj (16th February 2014), snaguer (15th February 2014)

  13. #7
    Senior Member Balón de oro
    Join Date
    Oct 2010
    Posts
    13,388
    Thanks
    807
    Thanked 17,759 Times in 7,607 Posts

    Wink NBA 2014 BBVA Rising Stars Challenge: Team Hill vs. Team Webber (2014.02.14)

    NBA 2014 BBVA Rising Stars Challenge
    Team Hill vs Team Webber


    2014.02.14 - 21:00 ET












    Code:
    Language....: English
    Ripper......: Reborn4HD
    Size........: 2.26 GB
    Format......: mkv
    Resolution..: 1280x720
    Video.......: H.264, 3000 Kbps @ 29.97 fps
    Audio.......: AAC, 128 Kbps, 44.1 KHz, 2 channels
    Release Note: I recommend MPC / Potplayer / KMPlayer for best playback.




    Code:
    http://uploaded.net/file/o4x7fm21/NBA.2014.BBVA.Rising.Stars.Challenge.Team-Hill.vs.Team-Webber.720p.HDTV.30fps.264-Reborn4HD_1-Half.mkv
    http://uploaded.net/file/ddeoqoze/NBA.2014.BBVA.Rising.Stars.Challenge.Team-Hill.vs.Team-Webber.720p.HDTV.30fps.264-Reborn4HD_2nd-Half.mkv


    Enjoy and a simple thanks to me would be great!

    Last edited by kclayman; 15th February 2014 at 13:43.

  14. The Following 4 Users Say Thank You to kclayman For This Useful Post:

    Javierlllll (16th February 2014), jurasros (15th February 2014), Loris14 (15th February 2014), mahmoodmj (16th February 2014)

  15. #8
    Moderator Crack meliosolo's Avatar
    Join Date
    Apr 2009
    Posts
    9,076
    Thanks
    593
    Thanked 14,466 Times in 5,401 Posts
    File size: 1,70Gb
    Length: 1:23:17
    Video codec: H.264, mkv container
    Frame rate: 30fps
    Resolution: 1280 x 720p
    Audio codec: AAC, 44.1khz, 2 channels
    Language: English
    Ripper: IlVarsh



    Torrent



     











  16. The Following 12 Users Say Thank You to meliosolo For This Useful Post:

    astharot (15th February 2014), blakily3 (15th February 2014), dban (15th February 2014), fate (15th February 2014), HAVLICEK17 (15th February 2014), Javierlllll (16th February 2014), Lietuvaitis (15th February 2014), mahmoodmj (16th February 2014), Nyuszko (15th February 2014), Pim70 (15th February 2014), snaguer (15th February 2014), weeky (15th February 2014)

  17. #9
    Senior Member Profesional
    Join Date
    Oct 2008
    Posts
    1,871
    Thanks
    1,098
    Thanked 265 Times in 247 Posts
    Muchas gracias!!

  18. #10
    Member Principiante
    Join Date
    Feb 2012
    Posts
    39
    Thanks
    52
    Thanked 4 Times in 4 Posts
    Gracias por el torrent sppcctv!!!

Posting Permissions

  • You may not post new threads
  • You may not post replies
  • You may not post attachments
  • You may not edit your posts
  •