Results 1 to 5 of 5

Thread: FÚTBOL: World Cup 2018 Qualifiers Playoff 2nd leg Highlights - 14/11/2017

Share |
  1. #1
    Senior Member Balón de oro Zidanekrisz's Avatar
    Join Date
    Sep 2013
    Posts
    33,993
    Thanks
    308
    Thanked 15,958 Times in 9,863 Posts

    FÚTBOL: World Cup 2018 Qualifiers Playoff 2nd leg Highlights - 14/11/2017




    World Cup 2018 Qualifiers - 14/11/2017
    Highlights




    DOWNLOAD
    https://www.inclouddrive.com/file/3p...720p-50fps.mkv


    channel: itv HD
    language: english
    format: 720p 50fps mkv
    bitrate: 3500kbps
    size: 1,8 GB








    ___________________




    World Cup 2018 Qualifiers - 14/11/2017
    Highlights




    DOWNLOAD
    https://www.inclouddrive.com/file/oH...s-eng-720p.mkv


    channel: itv HD
    language: english
    format: 720p mkv
    bitrate: 3000kbps
    size: 1,4 GB






    Last edited by Zidanekrisz; 15th November 2017 at 02:21.

  2. #2
    Senior Member Crack GaLaTaMaN's Avatar
    Join Date
    Oct 2012
    Posts
    8,008
    Thanks
    1,761
    Thanked 15,894 Times in 6,125 Posts



    World Cup 2018 Qualifiers - 14/11/2017
    Playoffs 2nd Leg Highlights

    including Interviews & Analysis of

    Switzerland vs Northern Ireland
    Greece vs Croatia
    Italy vs Sweden
    Republic of Ireland vs Denmark
    England vs Brazil


    FREE TO DOWNLOAD LINKS
    NO PREMIUM NEEDED

    _________________________________________________

    Channel : itv HD Source : DVB-S2 Language : English
    Video : 4 Mbps ‖ H.264 mkv ‖ 25fps Audio : 192 Kbps ‖ mp3 ‖ stereo
    Duration: 55min Size : ~1.5GB Release : HD 720p Highlights

    _________________________________________________

    [Download]

    https://www.inclouddrive.com/file/Vc...HG-ITV-720.mkv
    _________________________________________________

    Channel : itv HD Source : DVB-S2 Language : English
    Video : 8 Mbps ‖ H.264 ts ‖ 25fps Audio : 384 Kbps ‖ AC3 ‖ 5.1 channels
    Duration: 55min Size : ~3GB Release : HD 1080i Highlights

    _________________________________________________

    [Download]

    https://www.inclouddrive.com/file/Qg...HG-ITV-1080.ts
    _________________________________________________



    Last edited by GaLaTaMaN; 15th November 2017 at 02:58.

    HDFTBLL.BLOGSPOT.COM



    Thanks mrxula

  3. The Following 2 Users Say Thank You to GaLaTaMaN For This Useful Post:

    anwesend (16th November 2017), elvisbm007 (15th November 2017)

  4. #3
    Senior Member Balón de oro
    Join Date
    Nov 2011
    Location
    Real Madrid
    Posts
    19,398
    Thanks
    218
    Thanked 16,432 Times in 9,254 Posts



    Channel : ITV HD
    Resolution : 1280x720
    Bitrate : 4000 Kbps 50FPS
    Format : TS
    Size : 1.85 GB
    Language :English


    Download
    https://rapidgator.net/file/9c038838....50FPS.ts.html



    _





    Channel : ITV HD
    Resolution : 960x540
    Bitrate : 2000 Kbps
    Format : TS
    Size : 950MB
    Language :English


    Download
    https://rapidgator.net/file/83966fc9...g.540p.ts.html



  5. #4
    Senior Member Profesional
    Join Date
    Dec 2012
    Posts
    2,170
    Thanks
    48
    Thanked 5,844 Times in 1,697 Posts
    Jacqui Oatley presents highlights of the second legs of the 2018 World Cup qualifying playoffs, as Northern Ireland and the Republic of Ireland compete for two of the remaining places on offer for European teams. Martin O'Neill's Republic host Denmark at the Aviva Stadium, while Michael O'Neill's Northern Ireland play Switzerland in Basel. Also featuring highlights of England's friendly match against Brazil at Wembley. With studio analysis by Lee Dixon and Richard Dunne.


    General
    Unique ID : 94336690088696232004812713535970331546 (0x46F895EBD2A0E243C62E0E260639CB9A)
    Complete name : E:500GBDownloadsInternational Football Highlights 2017-11-14 720p HDTV DD2.0 50fps x264-wAm.mkv
    Format : Matroska
    Format version : Version 4 / Version 2
    File size : 1.93 GiB
    Duration : 54 min 28 s
    Overall bit rate : 5 071 kb/s
    Writing application : Lavf57.71.100
    Writing library : Lavf57.71.100
    ErrorDetectionType : Per level 1

    Video
    ID : 1
    Format : AVC
    Format/Info : Advanced Video Codec
    Format profile : High@L4.1
    Format settings : CABAC / 4 Ref Frames
    Format settings, CABAC : Yes
    Format settings, RefFrames : 4 frames
    Codec ID : V_MPEG4/ISO/AVC
    Duration : 54 min 28 s
    Bit rate : 4 778 kb/s
    Width : 1 280 pixels
    Height : 720 pixels
    Display aspect ratio : 16:9
    Frame rate mode : Constant
    Frame rate : 50.000 FPS
    Color space : YUV
    Chroma subsampling : 4:2:0
    Bit depth : 8 bits
    Scan type : Progressive
    Bits/(Pixel*Frame) : 0.104
    Stream size : 1.82 GiB (94%)
    Default : Yes
    Forced : No

    Audio
    ID : 2
    Format : AC-3
    Format/Info : Audio Coding 3
    Format settings, Endianness : Big
    Codec ID : A_AC3
    Duration : 54 min 26 s
    Bit rate mode : Constant
    Bit rate : 192 kb/s
    Channel(s) : 2 channels
    Channel positions : Front: L R
    Sampling rate : 48.0 kHz
    Frame rate : 31.250 FPS (1536 SPF)
    Bit depth : 16 bits
    Compression mode : Lossy
    Delay relative to video : 1 s 600 ms
    Stream size : 74.8 MiB (4%)
    Service kind : Complete Main
    Default : Yes
    Forced : No

    https://mega.nz/#!gKABmKJK!tuoCBMc6B...EZlcPIlF3qo6aQ
    NBA original uploader

    If you are an NBA games downloader, please address your thoughts about my torrents in this form:
    CLICK HERE - GOOGLE FORM

  6. The Following 4 Users Say Thank You to Intermedia For This Useful Post:

    aguilas80 (16th November 2017), daniel81 (15th November 2017), lickweeed (15th November 2017), murat guler (15th November 2017)

  7. #5
    Junior Member Principiante
    Join Date
    Feb 2015
    Posts
    6
    Thanks
    0
    Thanked 0 Times in 0 Posts
    Thanks for free link ^

Posting Permissions

  • You may not post new threads
  • You may not post replies
  • You may not post attachments
  • You may not edit your posts
  •