Page 3 of 3 FirstFirst 123
Results 21 to 29 of 29

Thread: FUTBOL: UCL - Real Madrid v. Juventus de Turín - 23/10/2013

Share |
  1. #21
    Moderator Balón de oro mokotronk's Avatar
    Join Date
    Sep 2009
    Location
    Sevilla
    Posts
    16,146
    Thanks
    5,070
    Thanked 24,044 Times in 7,391 Posts



    Ruso / AVI (XviD) / 704x400 / 1,5Gb / Aleks Del Piero



    http://adf.ly/Y4hrD




  2. #22
    Senior Member Profesional danayalop's Avatar
    Join Date
    Apr 2009
    Posts
    1,374
    Thanks
    112
    Thanked 2,505 Times in 707 Posts
    Actualizado, y sin que sirva de precedente, añadidos links de mega
    Si quieres contactar conmigo via twitter, @danayalop Todas mis subidas, ahora "organizadas" en una carpeta, clic AQUI
    Los archivos que lleven este logo tienen la descarga directa habilitada, lo que quiere decir que cualquiera puede descargar como premium
    Si vas a hacerte una cuenta premium, se agradece que lo hagas haciendo click enCon este simple gesto nos ayudais a seguir en esto.




  3. #23
    Senior Member Profesional sppcctv's Avatar
    Join Date
    Apr 2012
    Location
    Albacete, España
    Posts
    3,035
    Thanks
    51
    Thanked 3,783 Times in 1,532 Posts





    Mediainfo:
    Code:
    General
    Unique ID                                : 230797127085232238843446351806780764635 (0xADA1E8E9849160C7BA3A9B72571171DB)
    Complete name                            : N:\Torrents\UEFA Champions League - Real Madrid - Juventus 720p Spa [SPPCCTEAM].mkv
    Format                                   : Matroska
    Format version                           : Version 4 / Version 2
    File size                                : 2.30 GiB
    Duration                                 : 2h 37mn
    Overall bit rate                         : 2 097 Kbps
    Encoded date                             : UTC 2013-10-23 21:30:22
    Writing application                      : mkvmerge v6.2.0 ('Promised Land') built on Apr 28 2013 12:22:01
    Writing library                          : libebml v1.3.0 + libmatroska v1.4.0
    
    Video
    ID                                       : 1
    Format                                   : AVC
    Format/Info                              : Advanced Video Codec
    Format profile                           : High@L3.2
    Format settings, CABAC                   : Yes
    Format settings, ReFrames                : 4 frames
    Codec ID                                 : V_MPEG4/ISO/AVC
    Duration                                 : 2h 37mn
    Bit rate                                 : 2 000 Kbps
    Width                                    : 1 280 pixels
    Height                                   : 720 pixels
    Display aspect ratio                     : 16:9
    Frame rate                               : 25.000 fps
    Color space                              : YUV
    Chroma subsampling                       : 4:2:0
    Bit depth                                : 8 bits
    Scan type                                : Progressive
    Bits/(Pixel*Frame)                       : 0.087
    Stream size                              : 2.15 GiB (93%)
    Title                                    : By SppccTeam
    Writing library                          : x264 core 115 r2013 6fce39a
    Encoding settings                        : cabac=1 / ref=3 / deblock=1:0:0 / analyse=0x3:0x13 / me=hex / subme=7 / psy=1 / psy_rd=1.00:0.00 / mixed_ref=1 / me_range=16 / chroma_me=1 / trellis=1 / 8x8dct=1 / cqm=0 / deadzone=21,11 / fast_pskip=1 / chroma_qp_offset=-2 / threads=12 / sliced_threads=0 / nr=0 / decimate=1 / interlaced=0 / bluray_compat=0 / constrained_intra=0 / bframes=3 / b_pyramid=2 / b_adapt=1 / b_bias=0 / direct=1 / weightb=1 / open_gop=0 / weightp=2 / keyint=250 / keyint_min=25 / scenecut=40 / intra_refresh=0 / rc_lookahead=40 / rc=cbr / mbtree=1 / bitrate=2000 / ratetol=1.0 / qcomp=0.60 / qpmin=10 / qpmax=51 / qpstep=4 / vbv_maxrate=2000 / vbv_bufsize=20000 / nal_hrd=none / ip_ratio=1.40 / aq=1:1.00
    Language                                 : Spanish
    Default                                  : Yes
    Forced                                   : No
    
    Audio
    ID                                       : 2
    Format                                   : MPEG Audio
    Format version                           : Version 1
    Format profile                           : Layer 3
    Mode                                     : Joint stereo
    Mode extension                           : MS Stereo
    Codec ID                                 : A_MPEG/L3
    Codec ID/Hint                            : MP3
    Duration                                 : 2h 37mn
    Bit rate mode                            : Constant
    Bit rate                                 : 96.0 Kbps
    Channel(s)                               : 2 channels
    Sampling rate                            : 44.1 KHz
    Compression mode                         : Lossy
    Delay relative to video                  : 20ms
    Stream size                              : 108 MiB (5%)
    Title                                    : Canal+ Liga De Campeones HD
    Language                                 : Spanish
    Default                                  : Yes
    Forced                                   : No
    Descarga Torrent:
    Archivo.rar Con Imagenes de Muestra y el Torrent del Partido (Incluye Previo y Post)

    Uploaded: http://ul.to/jm5b1l0x
    Depositfiles: http://dfiles.eu/files/ic5yddypx

    Partidos a la carta.
    Pide el Partido que quieras, en el idioma, resolución, servidor que quieras y te lo intento conseguir. MAS INFO AQUI

    Si en alguno de mis Post se caen las Imagenes o los archivos, comunicalo por MP

    Register Free Or Buy A Premium Account On Uploaded HERE
    Registrate Gratis O Compra una Cuenta Premium de Uploaded AQUI

  4. #24
    Senior Member Amateur Rafa.martinez's Avatar
    Join Date
    Oct 2011
    Location
    Madrid, Spain
    Posts
    280
    Thanks
    25
    Thanked 33 Times in 26 Posts
    Muchísimas gracias danayalop, espero que sigas subiendo los partidos a servidores como MEGA, descarga mucho más rápido!, un saludo cordial MEGA-Crack

  5. #25
    Senior Member Amateur Rojo4Ever's Avatar
    Join Date
    Aug 2013
    Posts
    194
    Thanks
    49
    Thanked 362 Times in 133 Posts

    UCL 2013/14: Real Madrid - Juventus (23 Oct. 2013)

    UCL 2013/14: Real Madrid - Juventus (23 Oct. 2013)



    Code:
    Format                                   : Matroska
    Format version                           : Version 4 / Version 2
    Overall bit rate                         : 795 Kbps
    File size                                : 270 + 276 MiB
    MEGA.CO.NZ
    Code:
    1st half - http://adf.ly/Y4uz6
    
    2nd Half - http://adf.ly/Y6Nsc
    Last edited by Rojo4Ever; 24th October 2013 at 10:45.

  6. #26
    Senior Member Profesional elruso19's Avatar
    Join Date
    Jul 2013
    Posts
    2,575
    Thanks
    200
    Thanked 4,281 Times in 1,571 Posts


    Idioma: ruso

    Calidad : HDTVRip Formato : MKV Códec de vídeo : H.264 Códec de audio : AAS Vídeo : 1280x720 (16:9), 25 fps, 3600 kbps Audio : AAS 128 kbps, 2 canales, 48 kHz

    Ripper: Pirx

    2,88 Gb



    http://adf.ly/Y52UD

  7. The Following User Says Thank You to elruso19 For This Useful Post:

    GT-R (24th October 2013)

  8. #27
    Senior Member Balón de oro kclayman's Avatar
    Join Date
    Oct 2010
    Posts
    10,609
    Thanks
    793
    Thanked 14,662 Times in 6,127 Posts

    Wink UEFA Champions League 2013/14 - Group Stage: Juventus vs. Real Madrid (2013.10.23)

    UEFA Champions League 2013/14 - Group Stage

    Juventus vs Real Madrid


    2013.10.23 - 18:45 GMT

    Code:
    Commentary..: English
    Ripper......: Reborn4HD
    Size........: 2.33 GB
    Format......: mkv
    Resolution..: 1280x720
    Video.......: H.264, 3000 Kbps @ 29.97 fps
    Audio.......: AAC, 128 Kbps, 44.1 KHz, 2 channels
    Release Note: Follow Reborn4HD for Fastest HD NFL / NBA / EPL / UEFA-CL / NHL




    Code:
    http://uploaded.net/file/tji92i45/UEFA-CL.2013.10.23.Juventus.vs.Real-Madrid.720p.HDTV.30fps.x264-Reborn4HD.mp4



    Code:
    http://uploaded.net/file/f0ew0sne/UEFA-CL.2013.10.23.Juventus.vs.Real-Madrid.720p.HDTV.30fps.x264-Reborn4HD.part1.rar
    http://uploaded.net/file/8hutyin9/UEFA-CL.2013.10.23.Juventus.vs.Real-Madrid.720p.HDTV.30fps.x264-Reborn4HD.part2.rar
    http://uploaded.net/file/7m7cja5t/UEFA-CL.2013.10.23.Juventus.vs.Real-Madrid.720p.HDTV.30fps.x264-Reborn4HD.part3.rar
    http://uploaded.net/file/a0pt8yjd/UEFA-CL.2013.10.23.Juventus.vs.Real-Madrid.720p.HDTV.30fps.x264-Reborn4HD.part4.rar


    Enjoy and a simple thanks to me would be great!


  9. The Following 2 Users Say Thank You to kclayman For This Useful Post:

    Abdallah™ (24th October 2013), StanZ (24th October 2013)

  10. #28
    Moderator Balón de oro mokotronk's Avatar
    Join Date
    Sep 2009
    Location
    Sevilla
    Posts
    16,146
    Thanks
    5,070
    Thanked 24,044 Times in 7,391 Posts
    Quote Originally Posted by danayalop View Post
    Actualizado, y sin que sirva de precedente, añadidos links de mega
    Gracias danayalop, un detalle por tu parte poner visualización online y descargas por Mega! Chapó
    Espero sigas subiendo igual en adelante!

  11. #29
    Senior Member Amateur
    Join Date
    Aug 2011
    Posts
    125
    Thanks
    1
    Thanked 38 Times in 21 Posts


    Real Madrid - Juventus
    _________________________________________________

    [Channel] : Canal+ Liga de Campeones HD
    [Source] : DVB-S
    [Language-1] : Spanish / Castellano
    [video] : 2000 kbps/h.264 mkv/25fps
    [Audio] : 128 Kbps/mp3 lame/stereo
    [Duration] : 122 min.
    [Release] : SD 400p Full Match
    _________________________________________________

    Watch online/Ver online:
    http://adf.ly/Y6nIC
    http://adf.ly/Y6nkC



  12. The Following User Says Thank You to cgn97 For This Useful Post:

    truebluemick (24th October 2013)

Posting Permissions

  • You may not post new threads
  • You may not post replies
  • You may not post attachments
  • You may not edit your posts
  •